Торрент файл
скачать торрент магнет ссылка Добавлен: 25 фев 2013, 19:58
Размер: 4.37 ГБ
Сидеров: 32
Личеров: 4
Автор

СообщениеДобавлено: 25 фев 2013, 19:58 

Не в сети
Зам. Админа
Аватара пользователя
Дата регистрации:
02 дек 2010, 12:39
Спасибо: 12458 / 214
Сообщения: 27968

Год выхода: 2012
Жанр:мультфильм, комедия, приключения
Режиссер: Иджинио Страффи

В ролях:
Лука Арджентеро, Лаура Кьятти, Джулианна Хаф, Белен Родригес

О фильме:
Страшное извержение вулкана разрушает город Помпеи, и маленький Тим остается сиротой. Его спаситель, генерал Кирон, отправляет Тима в школу гладиаторов, но юный лентяй упорно не желает становиться бойцом. Повзрослев, Тим влюбляется в красавицу Лючиллу. Но чтобы покорить её сердце, нужно стать настоящим героем. Прекрасная Диана, богиня охоты и мастер по гладиаторским боям, берется за тренировки Тима перед первым боем. Но получится ли у Тима победить самого себя и стать настоящим мужчиной?
Выпущено: Италия / Rainbow S.r.l See
Продолжительность: 01:34:04
Озвучивание: Дублированное [лицензия]

Качество: BDRip [1080p]
Видео: 1920x816, 6198 Кбит/сек, 23,976 кадр/сек, AVC, x264, 2,35:1, 0.165 Бит/[Пиксели*Кадры], 2pass
Аудио: AC-3, 448 Кбит/сек, 6 канала(ов), 48,0 КГц
Размер: 4,37 ГБ

Бюджет Фильма: -
Кассовые сборы: -

Релиз от:






Формат: Matroska
Версия формата: Version 4 / Version 2
Размер файла: 4,37 Гбайт
Продолжительность: 1 ч. 34 м.
Общий поток: 6646 Кбит/сек
Дата кодирования: UTC 2013-02-25 14:43:20
Программа кодирования: mkvmerge v6.0.0 ('Coming Up For Air') built on Jan 20 2013 09:52:00
Библиотека кодирования: libebml v1.3.0 + libmatroska v1.4.0

Видео
Идентификатор: 1
Формат: AVC
Формат/Информация: Advanced Video Codec
Профиль формата: High@L4.0
Параметр CABAC формата: Да
Параметр ReFrames формата: 4 кадра
Идентификатор кодека: V_MPEG4/ISO/AVC
Продолжительность: 1 ч. 34 м.
Битрейт: 6198 Кбит/сек
Ширина: 1920 пикселей
Высота: 816 пикселей
Соотношение сторон: 2,35:1
Соотношение сторон в оригинале: 2,35:1
Режим частоты кадров: Постоянный
Частота кадров: 23,976 кадра/сек
Цветовое пространство: YUV
Субдискретизация насыщенности: 4:2:0
Битовая глубина: 8 бит
Тип развёртки: Прогрессивная
Бит/(Пиксели*Кадры): 0.165
Размер потока: 3,99 Гбайт (91%)
Библиотека кодирования: x264 core 129 r2245 bc13772
Настройки программы: cabac=1 / ref=3 / deblock=1:0:0 / analyse=0x3:0x113 / me=hex / subme=7 / psy=1 / psy_rd=1.00:0.00 / mixed_ref=1 / me_range=16 / chroma_me=1 / trellis=1 / 8x8dct=1 / cqm=0 / deadzone=21,11 / fast_pskip=1 / chroma_qp_offset=-2 / threads=6 / lookahead_threads=1 / sliced_threads=0 / nr=0 / decimate=1 / interlaced=0 / bluray_compat=0 / constrained_intra=0 / bframes=3 / b_pyramid=2 / b_adapt=1 / b_bias=0 / direct=1 / weightb=1 / open_gop=0 / weightp=2 / keyint=240 / keyint_min=23 / scenecut=40 / intra_refresh=0 / rc_lookahead=40 / rc=2pass / mbtree=1 / bitrate=6198 / ratetol=1.0 / qcomp=0.60 / qpmin=0 / qpmax=69 / qpstep=4 / cplxblur=20.0 / qblur=0.5 / ip_ratio=1.40 / aq=1:1.00
Язык: English
Default: Да
Forced: Нет

Аудио
Идентификатор: 2
Формат: AC-3
Формат/Информация: Audio Coding 3
Расширение режима: CM (complete main)
Параметр Endianness формата: Big
Идентификатор кодека: A_AC3
Продолжительность: 1 ч. 34 м.
Вид битрейта: Постоянный
Битрейт: 448 Кбит/сек
Каналы: 6 каналов
Расположение каналов: Front: L C R, Side: L R, LFE
Частота: 48,0 КГц
Битовая глубина: 16 бит
Метод сжатия: С потерями
Размер потока: 301 Мбайт (7%)
Default: Да
Forced: Нет




реклама партнёра


Вернуться к началу
 Профиль  
 
   Похожие торренты   Автор   Торрент   Размер 
В этой теме нет новых непрочитанных сообщений. Белка и Стрелка: Лунные приключения [мультфильм, комедия, приключения, семейный, 2013] BDRip 1080p | [Лицензия]

Dracon

64 | 4

3.88 ГБ

В этой теме нет новых непрочитанных сообщений. Рио 2 / Rio 2 [Мультфильм, комедия, приключения, семейный, 2014] BDRip 1080p, Dub+Sub [Лицензия | 3D-Video]

Dracon

607 | 32

7.63 ГБ

В этой теме нет новых непрочитанных сообщений. Приключения мистера Пибоди и Шермана / Mr. Peabody & Sherman [Мультфильм, Фантастика, Комедия, Приключения, Семейный, 2014] BDRip 1080p, Dub+Sub [лицензия | 3D-Video]

Dracon

140 | 9

9.22 ГБ

В этой теме нет новых непрочитанных сообщений. Рио 2 / Rio 2 (Карлос Салдана) [2014, мультфильм, комедия, приключения, семейный, BDRip 1080p | Лицензия]

Dracon

596 | 14

9.24 ГБ

В этой теме нет новых непрочитанных сообщений. Три богатыря: Ход Конем (Константин Феоктистов) [мультфильм, комедия, приключения, фэнтези, 2014] BDRip 1080p [Лицензия]

Dracon

26 | 2

6.27 ГБ

В этой теме нет новых непрочитанных сообщений. Дом / Home (Тим Джонсон) [мультфильм, фантастика, фэнтези, комедия, приключения, семейный, 2015] BDRip 1080p, Dub+Sub [лицензия]

Dracon

2 | 0

7.1 ГБ

В этой теме нет новых непрочитанных сообщений. В поисках Дори / Finding Dory (мультфильм, комедия, приключения, семейный, 2016) BDRip 1080p | Лицензия

marya111

107 | 9

12.46 ГБ


Начать новую тему Ответить на тему  [ 1 сообщение ] 




Для Мосгорсуда, Роскомнадзора и рекламодателей:: mosgorsud-torrent[собачка]yandex.ru