Торрент файл
скачать торрент магнет ссылка Добавлен: 15 фев 2013, 20:50
Размер: 4.55 ГБ
Сидеров: 5
Личеров: 2
Статус: (Dracon)
Автор

СообщениеДобавлено: 15 фев 2013, 20:50 

Не в сети
Зам. Админа
Аватара пользователя
Дата регистрации:
02 дек 2010, 12:39
Спасибо: 12623 / 214
Сообщения: 28012

Год выхода: 2012
Жанр: Мультфильм, комедия, приключения, семейный
Режиссер: Рич Мур
В ролях: Эди МакКлёрг, Минди Калинг, Деннис Хейсбёрт, Рэйчел Харрис, Джеми Элман, Адам Каролла, Сара Силверман, Джек МакБрайер, Джон Си Райли, Джейн Линч

О фильме:
Ральф — второстепенный персонаж восьмибитной компьютерной игры, и ему надоело находиться в тени главного героя, мастера на все руки Феликса, который всегда появляется, чтобы «исправить» ситуацию! После тридцати лет добросовестной работы в роли злодея, в течение которых все похвалы выпадали на долю Феликса, Ральф больше не хочет быть плохим.

Он решает отправиться в путешествие по аркадным играм разных жанров, чтобы доказать всем, что и он тоже может быть героем. На своем пути Ральф встречает героев разных игр — хладнокровную сержанта Калхун из игры Hero’s Duty, оберегающую планету от нашествия инопланетных захватчиков, и сладкую на вид, но острую на язычок Сластену фон Дю, чье существование в гоночном симуляторе Sugar Rush внезапно оказывается под угрозой. Наконец-то Ральфу выпадает шанс показать, что он умеет не только разрушать!



Страна: США
Студия: Walt Disney Animation Studios
Продолжительность: 01:41:16
Перевод: Дублированный [Чистый звук]

Кодек: AVC
Качество: BDRip 720p
Видео: 1280x536, 23.976 fps, 4663 Kbps
Аудио 1: AC3, 48 kHz, 2 ch, 256 Kbps [Russian]
Аудио 2: DTS, 48 kHz, 6 ch, 1510 Kbps [English]
Субтитры: English
Дополнительно: Сохранены оригинальные чаптеры как на Blu-Ray.

Семпл

General
Unique ID: 247821668651620576017650732993072245726 (0xBA70B79DDAB8F6CC95F5A67D8956ABDE)
Complete name: G:Ralph.2012.D.BDRip.720p.mkv
Format: Matroska
Format version: Version 2
File size: 4.55 GiB
Duration: 1h 41mn
Overall bit rate: 6 431 Kbps
Encoded date: UTC 2013-02-15 08:36:42
Writing application: mkvmerge v5.2.0 ('I can't explain') built on Dec 18 2011 18:12:03
Writing library: libebml v1.2.3 + libmatroska v1.3.0

Video
ID: 1
Format: AVC
Format/Info: Advanced Video Codec
Format profile: High@L4.1
Format settings, CABAC: Yes
Format settings, ReFrames: 5 frames
Codec ID: V_MPEG4/ISO/AVC
Duration: 1h 41mn
Bit rate: 4 663 Kbps
Width: 1 280 pixels
Height: 536 pixels
Display aspect ratio: 2.40:1
Frame rate: 23.976 fps
Color space: YUV
Chroma subsampling: 4:2:0
Bit depth: 8 bits
Scan type: Progressive
Bits/(Pixel*Frame): 0.283
Stream size: 3.21 GiB (71%)
Title: Wreck-It Ralph 2012 720p BluRay x264-SPARKS
Writing library: x264 core 129 r2245 bc13772
Encoding settings: cabac=1 / ref=5 / deblock=1:0:0 / analyse=0x3:0x133 / me=umh / subme=7 / psy=1 / psy_rd=1.00:0.00 / mixed_ref=1 / me_range=16 / chroma_me=1 / trellis=1 / 8x8dct=1 / cqm=0 / deadzone=21,11 / fast_pskip=0 / chroma_qp_offset=-2 / threads=12 / lookahead_threads=2 / sliced_threads=0 / nr=0 / decimate=1 / interlaced=0 / bluray_compat=0 / constrained_intra=0 / bframes=3 / b_pyramid=2 / b_adapt=1 / b_bias=0 / direct=1 / weightb=1 / open_gop=0 / weightp=2 / keyint=250 / keyint_min=23 / scenecut=40 / intra_refresh=0 / rc_lookahead=40 / rc=2pass / mbtree=1 / bitrate=4663 / ratetol=1.0 / qcomp=0.60 / qpmin=0 / qpmax=69 / qpstep=4 / cplxblur=20.0 / qblur=0.5 / ip_ratio=1.40 / aq=1:1.00
Language: English
Default: Yes
Forced: Yes

Audio #1
ID: 2
Format: AC-3
Format/Info: Audio Coding 3
Mode extension: CM (complete main)
Codec ID: A_AC3
Duration: 1h 41mn
Bit rate mode: Constant
Bit rate: 256 Kbps
Channel(s): 2 channels
Channel positions: Front: L R
Sampling rate: 48.0 KHz
Bit depth: 16 bits
Compression mode: Lossy
Delay relative to video: 18ms
Stream size: 185 MiB (4%)
Title: DD 2.0 @ 256 kbps - Dub, [чистый звук]
Language: Russian
Default: Yes
Forced: Yes

Audio #2
ID: 3
Format: DTS
Format/Info: Digital Theater Systems
Codec ID: A_DTS
Duration: 1h 41mn
Bit rate mode: Constant
Bit rate: 1 510 Kbps
Channel(s): 6 channels
Channel positions: Front: L C R, Side: L R, LFE
Sampling rate: 48.0 KHz
Bit depth: 24 bits
Compression mode: Lossy
Stream size: 1.07 GiB (23%)
Title: DTS 5.1 @ 1536 kbps
Language: English
Default: No
Forced: No

Text #1
ID: 4
Format: UTF-8
Codec ID: S_TEXT/UTF8
Codec ID/Info: UTF-8 Plain Text
Title: English
Language: English
Default: No
Forced: No

Text #2
ID: 5
Format: UTF-8
Codec ID: S_TEXT/UTF8
Codec ID/Info: UTF-8 Plain Text
Title: English
Language: English
Default: No
Forced: No

Menu
00:00:00.000: en:00:00:00.000
00:07:12.140: en:00:07:12.140
00:16:34.910: en:00:16:34.910
00:27:07.501: en:00:27:07.501
00:37:25.952: en:00:37:25.952
00:44:46.684: en:00:44:46.684
00:48:45.130: en:00:48:45.130
00:51:36.009: en:00:51:36.009
00:58:56.032: en:00:58:56.032
01:09:07.893: en:01:09:07.893
01:13:39.623: en:01:13:39.623
01:15:56.802: en:01:15:56.802
01:18:52.978: en:01:18:52.978
01:21:53.742: en:01:21:53.742
01:27:25.365: en:01:27:25.365
01:33:10.543: en:01:33:10.543




реклама партнёра


Вернуться к началу
 Профиль  
 
   Похожие торренты   Автор   Торрент   Размер 
В этой теме нет новых непрочитанных сообщений. Город героев / Big Hero 6 (Дон Холл, Крис Уильямс) [мультфильм, фантастика, комедия, семейный, боевик, 2014] BDRip 720p, dub [Чистый звук]

Dracon

14 | 3

3.37 ГБ

В этой теме нет новых непрочитанных сообщений. Феи: Легенда о чудовище / Legend of the NeverBeast (Стив Лотер) [мультфильм, фэнтези, приключения, семейный, 2014] BDRip 720p, dub [чистый звук]

Dracon

38 | 4

2.39 ГБ

В этой теме нет новых непрочитанных сообщений. Миньоны / Minions (Кайл Балда, Пьер Соффин) [мультфильм, комедия, семейный, 2015] HDTVRip 720p, dub [Чистый звук]

slawa4155

1800 | 15

2.78 ГБ

В этой теме нет новых непрочитанных сообщений. Король Ральф / King Ralph [мелодрама, комедия, 1991] BDRip 1080p, Mvo

salma3

27 | 2

9.23 ГБ

В этой теме нет новых непрочитанных сообщений. Хороший динозавр / The Good Dinosaur [Мультфильм, фэнтези, комедия, приключения, семейный, 2015] BDRip 1080p, dub [чистый звук]

Dracon

321 | 12

4.5 ГБ

В этой теме нет новых непрочитанных сообщений. Головоломка / Inside Out (Пит Доктер, Роналдо Дель Кармен) [мультфильм, драма, комедия, семейный, 2015] HDTV 720p, dub [Чистый звук]

Dracon

795 | 5

3.91 ГБ

В этой теме нет новых непрочитанных сообщений. Хороший динозавр / The Good Dinosaur (Питер Сон) [2015, Мультфильм, фэнтези, комедия, приключения, семейный, BDRip 1080p | Чистый звук] Dub

marya111

142 | 5

4.51 ГБ


Начать новую тему Ответить на тему  [ 1 сообщение ] 




Для Мосгорсуда, Роскомнадзора и рекламодателей:: mosgorsud-torrent[собачка]yandex.ru