Торрент файл
скачать торрент магнет ссылка Добавлен: 12 фев 2013, 17:54
Размер: 3.34 ГБ
Сидеров: 0
Личеров: 2
Автор

СообщениеДобавлено: 12 фев 2013, 17:54 

Не в сети
Зам. Админа
Аватара пользователя
Дата регистрации:
02 дек 2010, 12:39
Спасибо: 12461 / 214
Сообщения: 27968

Год выхода в прокат: 2012
Жанр:мультфильм, комедия, семейный
Режиссер: Рич Мур
В ролях: Джон Си Райли Джек МакБрайер Сара Силверман Джейн Линч Алан Тьюдик Минди Калинг Джо Ло Труглио Эд О’Нил Деннис Хейсбёрт Эди МакКлёрг

О фильме: Ральф — второстепенный персонаж восьмибитовой компьютерной игры, и ему надоело находиться в тени главного героя, мастера на все руки Феликса, который всегда появляется, чтобы «исправить» ситуацию! После десяти лет добросовестной работы в роли злодея, в течение которых все похвалы выпадали на долю Феликса, Ральф больше не хочет быть плохим.


Страна: США
Продолжительность: 01:41:12
Озвучивание: Дублированное [чистый звук]

Формат: MKV
Качество: WEB-DL 720p
Видео: 4049 kb/s, 1280x534
Аудио: Russian: AC3, 192 kb/s (2 ch) / English: AC3, 384 kb/s (6 ch)
Субтитры: English
Дополнительно: Сохранены оригинальные чаптеры как на Blu-Ray.
Скачать: Сэмпл

General
Unique ID : 231492475410300822125086391641257782303 (0xAE27D43B43AD54A09F92941FFE4FAC1F)
Complete name : Ralf.2012.D.WEB-DL.720p_Epidemz.Net.mkv
Format : Matroska
Format version : Version 2
File size : 3.34 GiB
Duration : 1h 41mn
Overall bit rate : 4 715 Kbps
Encoded date : UTC 2013-02-12 12:59:56
Writing application : mkvmerge v5.2.0 ('I can't explain') built on Dec 18 2011 18:12:03
Writing library : libebml v1.2.3 + libmatroska v1.3.0

Video
ID : 1
Format : AVC
Format/Info : Advanced Video Codec
Format profile : Main@L3.1
Format settings, CABAC : No
Format settings, ReFrames : 2 frames
Format settings, GOP : N=1
Codec ID : V_MPEG4/ISO/AVC
Duration : 1h 41mn
Bit rate : 4 046 Kbps
Width : 1 280 pixels
Height : 534 pixels
Display aspect ratio : 2.40:1
Frame rate : 23.976 fps
Color space : YUV
Chroma subsampling : 4:2:0
Bit depth : 8 bits
Scan type : Progressive
Bits/(Pixel*Frame) : 0.247
Stream size : 2.86 GiB (86%)
Title : Wreck-It.Ralph.2012.720p.WEB-DL.DD5.1.H.264-CtrlHD
Language : English
Default : Yes
Forced : Yes
Color primaries : BT.709-5, BT.1361, IEC 61966-2-4, SMPTE RP177
Transfer characteristics : BT.709-5, BT.1361
Matrix coefficients : BT.709-5, BT.1361, IEC 61966-2-4 709, SMPTE RP177

Audio #1
ID : 2
Format : AC-3
Format/Info : Audio Coding 3
Mode extension : CM (complete main)
Format settings, Endianness : Big
Codec ID : A_AC3
Duration : 1h 41mn
Bit rate mode : Constant
Bit rate : 192 Kbps
Channel(s) : 2 channels
Channel positions : Front: L R
Sampling rate : 48.0 KHz
Bit depth : 16 bits
Compression mode : Lossy
Stream size : 139 MiB (4%)
Language : Russian
Default : Yes
Forced : Yes

Audio #2
ID : 3
Format : AC-3
Format/Info : Audio Coding 3
Mode extension : CM (complete main)
Format settings, Endianness : Big
Codec ID : A_AC3
Duration : 1h 41mn
Bit rate mode : Constant
Bit rate : 384 Kbps
Channel(s) : 6 channels
Channel positions : Front: L C R, Side: L R, LFE
Sampling rate : 48.0 KHz
Bit depth : 16 bits
Compression mode : Lossy
Stream size : 278 MiB (8%)
Language : English
Default : No
Forced : No

Text
ID : 4
Format : UTF-8
Codec ID : S_TEXT/UTF8
Codec ID/Info : UTF-8 Plain Text
Title : CC
Language : English
Default : No
Forced : No

Menu
00:00:00.000 : en:Opening Titles
00:07:13.000 : en:30 Years
00:16:36.000 : en:Hero's Duty
00:27:09.000 : en:Sugar Rush
00:37:27.000 : en:The Glitch
00:44:48.000 : en:Going Turbo
00:48:46.000 : en:Making A Car
00:51:37.000 : enriving Lessons
00:58:57.000 : en:King Candy's Secret
01:09:08.000 : en:Out Of Order
01:13:41.000 : en:Every Day Of My Life
01:15:58.000 : en:The Race
01:18:54.000 : en:Cy-Bug Invasion
01:21:55.000 : en:Can't Leave The Game
01:27:27.000 : en:One Game At A Time
01:33:08.000 : en:End Credits


Релиз от




реклама партнёра


Вернуться к началу
 Профиль  
 
   Похожие торренты   Автор   Торрент   Размер 
В этой теме нет новых непрочитанных сообщений. Холодное сердце / Frozen [Мультфильм, фэнтези, комедия, приключения, семейный, 2013] WEB-DL 720p, Dub [Чистый звук]

Dracon

570 | 10

3.33 ГБ

В этой теме нет новых непрочитанных сообщений. Миньоны / Minions (Кайл Балда, Пьер Соффин) [мультфильм, комедия, семейный, 2015] HDTVRip 720p, dub [Чистый звук]

slawa4155

1785 | 14

2.78 ГБ

В этой теме нет новых непрочитанных сообщений. Головоломка / Inside Out (Пит Доктер, Роналдо Дель Кармен) [мультфильм, драма, комедия, семейный, 2015] HDTV 720p, dub [Чистый звук]

Dracon

798 | 5

3.91 ГБ

В этой теме нет новых непрочитанных сообщений. Город героев / Big Hero 6 (Дон Холл, Крис Уильямс) [мультфильм, фантастика, комедия, семейный, боевик, 2014] WEB-DLRip 720p, dub [Чистый звук]

Dracon

29 | 2

3.18 ГБ

В этой теме нет новых непрочитанных сообщений. Город героев / Big Hero 6 (Дон Холл, Крис Уильямс) [мультфильм, фантастика, комедия, семейный, боевик, 2014] BDRip 720p, dub [Чистый звук]

Dracon

14 | 3

3.37 ГБ

В этой теме нет новых непрочитанных сообщений. Приключения мистера Пибоди и Шермана / Mr. Peabody & Sherman [Мультфильм, фантастика, комедия, приключения, семейный, 2014] WEB-DL 720p, dub [Чистый звук]

Dracon

346 | 5

2.68 ГБ

В этой теме нет новых непрочитанных сообщений. Кот Гром и заколдованный дом / The House of Magic [Мультфильм, семейный, 2013] BDRip 720p, Dub [Чистый звук]

Dracon

190 | 5

3.64 ГБ


Начать новую тему Ответить на тему  [ 1 сообщение ] 




Для Мосгорсуда, Роскомнадзора и рекламодателей:: mosgorsud-torrent[собачка]yandex.ru