Торрент файл
скачать торрент магнет ссылка Добавлен: 01 фев 2013, 09:57
Размер: 3.4 ГБ
Сидеров: 14
Личеров: 2
Автор

СообщениеДобавлено: 01 фев 2013, 09:57 

Не в сети
Зам. Админа
Аватара пользователя
Дата регистрации:
02 дек 2010, 12:39
Спасибо: 12623 / 214
Сообщения: 28012

Год выхода: 2012
Жанр: Мультфильм, фэнтези, приключения, семейный
Режиссер: Максим Свешников, Владлен Барбэ
В ролях: Иван Охлобыстин, Нюша Шурочкина, Анна Ардова, Рамиля Искандер, Дмитрий Нагиев, Лиза Арзамасова, Галина Тюнина, Юрий Стоянов, Людмила Артемьева, Михаил Тихонов

О фильме:
В стремлении сотворить Новый мир — холодный и практичный, где четкость линий призвана заменить эмоции, а северный ветер должен остудить людские души, Снежная Королева избавляется от всех представителей творческих профессий. Маленькой и смелой Герде, отправившейся в опасное путешествие, чтобы спасти своего брата Кая, предстоит столкнуться с этим холодным миром Снежной Королевы. Преодолевая все сложности и преграды на пути к своей цели, Герда не только обретает семью, но и веру в себя, находит поддержку новых друзей.



Страна: Россия
Студия: Инлэй Фильм, Wizart Animation
Продолжительность: 01:17:21
Перевод: Не требуется [Лицензия]

Кодек: AVC
Качество: BDRip 720p
Видео: 1280x720, 24 fps, 5519 kbps
Звук: AC3, 48 kHz, 6 ch, 640 kbps

General
Unique ID: 199782776142407911721156217009580371436 (0x964CC35A2A0D6136AD0BCD4A36ED6DEC)
Complete name: G:Snezhnaja.koroleva.2012.O.BDRip.720p.mkv
Format: Matroska
Format version: Version 2
File size: 3.40 GiB
Duration: 1h 17mn
Overall bit rate: 6 284 Kbps
Encoded date: UTC 2013-01-31 17:24:35
Writing application: mkvmerge v5.2.0 ('I can't explain') built on Dec 18 2011 18:12:03
Writing library: libebml v1.2.3 + libmatroska v1.3.0

Video
ID: 1
Format: AVC
Format/Info: Advanced Video Codec
Format profile: High@L4.1
Format settings, CABAC: Yes
Format settings, ReFrames: 5 frames
Codec ID: V_MPEG4/ISO/AVC
Duration: 1h 17mn
Bit rate: 5 519 Kbps
Width: 1 280 pixels
Height: 720 pixels
Display aspect ratio: 16:9
Frame rate: 24.000 fps
Color space: YUV
Chroma subsampling: 4:2:0
Bit depth: 8 bits
Scan type: Progressive
Bits/(Pixel*Frame): 0.250
Stream size: 2.98 GiB (88%)
Writing library: x264 core 129 r2230 1cffe9f
Encoding settings: cabac=1 / ref=5 / deblock=1:0:0 / analyse=0x3:0x113 / me=dia / subme=1 / psy=1 / psy_rd=0.40:0.00 / mixed_ref=1 / me_range=16 / chroma_me=1 / trellis=1 / 8x8dct=1 / cqm=0 / deadzone=21,11 / fast_pskip=1 / chroma_qp_offset=0 / threads=12 / lookahead_threads=2 / sliced_threads=0 / nr=0 / decimate=1 / interlaced=0 / bluray_compat=0 / constrained_intra=0 / bframes=3 / b_pyramid=2 / b_adapt=1 / b_bias=0 / direct=3 / weightb=1 / open_gop=0 / weightp=2 / keyint=250 / keyint_min=24 / scenecut=40 / intra_refresh=0 / rc_lookahead=40 / rc=crf / mbtree=1 / crf=16.0 / qcomp=0.60 / qpmin=0 / qpmax=69 / qpstep=4 / ip_ratio=1.40 / aq=1:0.90
Language: Russian
Default: Yes
Forced: Yes

Audio
ID: 2
Format: AC-3
Format/Info: Audio Coding 3
Mode extension: CM (complete main)
Format settings, Endianness: Big
Codec ID: A_AC3
Duration: 1h 17mn
Bit rate mode: Constant
Bit rate: 640 Kbps
Channel(s): 6 channels
Channel positions: Front: L C R, Side: L R, LFE
Sampling rate: 48.0 KHz
Bit depth: 16 bits
Compression mode: Lossy
Stream size: 354 MiB (10%)
Language: Russian
Default: Yes
Forced: Yes




реклама партнёра


Вернуться к началу
 Профиль  
 
   Похожие торренты   Автор   Торрент   Размер 
В этой теме нет новых непрочитанных сообщений. Снежная королева 2: Перезаморозка (Алексей Цицилин) [мультфильм, фэнтези, приключения, семейный, 2014] WEB-DLRip 720p

Dracon

11 | 3

2.49 ГБ

В этой теме нет новых непрочитанных сообщений. Снежная королева 2: Перезаморозка (Алексей Цицилин) [мультфильм, фэнтези, приключения, семейный, 2014] WEBRip 720p

Dracon

634 | 10

2.25 ГБ

В этой теме нет новых непрочитанных сообщений. Снежная королева 3. Огонь и лед [Мультфильм, фэнтези, приключения, семейный, полнометражный, 2016] WEB-DL 1080p [iTunes]

salma3

5306 | 728

3.06 ГБ

В этой теме нет новых непрочитанных сообщений. Снежная королева 2: Перезаморозка (Алексей Цицилин) [мультфильм, фэнтези, приключения, семейный, 2014] WEBRip

Dracon

В этой теме нет новых непрочитанных сообщений. Снежная королева 2: Перезаморозка (Алексей Цицилин) [мультфильм, фэнтези, приключения, семейный, 2014] WEB-DLRip

Dracon

23 | 3

1.37 ГБ

В этой теме нет новых непрочитанных сообщений. Снежная королева 2: Перезаморозка (Алексей Цицилин) [мультфильм, фэнтези, приключения, семейный, 2014] WEB-DLRip 1080p

Dracon

29 | 5

2.58 ГБ

В этой теме нет новых непрочитанных сообщений. Снежная королева [фэнтези, драма, приключения, семейный, 1967] ВDRip

salma3

26 | 13

1.45 ГБ


Начать новую тему Ответить на тему  [ 1 сообщение ] 




Для Мосгорсуда, Роскомнадзора и рекламодателей:: mosgorsud-torrent[собачка]yandex.ru