Торрент файл
скачать торрент магнет ссылка Добавлен: 24 янв 2013, 20:07
Размер: 1.51 ГБ
Сидеров: 0
Личеров: 2
Автор

СообщениеДобавлено: 24 янв 2013, 20:07 

Не в сети
Зам. Админа
Аватара пользователя
Дата регистрации:
02 дек 2010, 12:39
Спасибо: 12461 / 214
Сообщения: 27968

Монстры на каникулах / Hotel Transylvania

Год выхода: 2012
Жанр: мультфильм, комедия, семейный
Режиссер: Геннадий Тартаковский / Genndy Tartakovsky
В ролях: Адам Сэндлер, Энди Сэмберг, Селена Гомес, Кевин Джеймс, Фрэн Дрешер, Стив Бушеми, Молли Шеннон, Дэвид Спейд, Си-Ло, Джон Ловиц

О фильме:
Граф Дракула для себя и своей любимой дочки построил хорошо укрытый от посторонних глаз отель, куда монстры со всего света приезжают отдохнуть от семейных забот, повседневной суеты и, конечно… людей. Но вездесущие американские туристы проникают и сюда.



Страна: США
Продолжительность: 01:31:31
Перевод: Дублированный [Лицензия]
релиз от:
Формат: MKV
Качество: HDRip-AVC
Видео: MPEG4 Video (H264) 720x392 (727:392) 23.976fps
Аудио: Dolby AC3 48000Hz stereo 384kbps


Семпл

General
Unique ID : 303225763438149129375562305245216617535 (0xE41F2863B6E3A8EF2BA5F6EDF395B43F)
Complete name : D:\torrent\Monsrty.na.kanikulah.2012.D.mkv
Format : Matroska
Format version : Version 2
File size : 1.51 GiB
Duration : 1h 31mn
Overall bit rate : 2 364 Kbps
Movie name : -=NNM-CLUB.RU=-
Writing application : XviD4PSP 6.0 / 53.6.0
Writing library : XviD4PSP 6.0 / 53.6.0

Video
ID : 1
Format : AVC
Format/Info : Advanced Video Codec
Format profile : High@L4.1
Format settings, CABAC : Yes
Format settings, ReFrames : 3 frames
Codec ID : V_MPEG4/ISO/AVC
Duration : 1h 31mn
Bit rate : 1 986 Kbps
Width : 720 pixels
Height : 392 pixels
Display aspect ratio : 1.855
Frame rate mode : Variable
Frame rate : 23.976 fps
Color space : YUV
Chroma subsampling : 4:2:0
Bit depth : 8 bits
Scan type : Progressive
Bits/(Pixel*Frame) : 0.293
Stream size : 1.24 GiB (82%)
Title : Monstri.na.kanikulah.2012.D.BDRip.720p.NNM-CLUB
Writing library : x264 core 116 r2019M 9cc407d
Encoding settings : cabac=1 / ref=3 / deblock=1:-1:-1 / analyse=0x3:0x133 / me=hex / subme=7 / psy=1 / psy_rd=1.00:0.15 / mixed_ref=1 / me_range=16 / chroma_me=1 / trellis=1 / 8x8dct=1 / cqm=0 / deadzone=21,11 / fast_pskip=1 / chroma_qp_offset=-3 / threads=8 / sliced_threads=0 / nr=0 / decimate=1 / interlaced=0 / bluray_compat=0 / constrained_intra=0 / bframes=3 / b_pyramid=1 / b_adapt=2 / b_bias=0 / direct=3 / weightb=1 / open_gop=0 / weightp=2 / keyint=230 / keyint_min=23 / scenecut=40 / intra_refresh=0 / rc_lookahead=40 / rc=abr / mbtree=1 / bitrate=1986 / ratetol=1.0 / qcomp=0.60 / qpmin=10 / qpmax=51 / qpstep=4 / ip_ratio=1.40 / aq=1:1.00
Language : English
Default : Yes
Forced : No

Audio
ID : 2
Format : AC-3
Format/Info : Audio Coding 3
Mode extension : CM (complete main)
Codec ID : A_AC3
Duration : 1h 31mn
Bit rate mode : Constant
Bit rate : 384 Kbps
Channel(s) : 2 channels
Channel positions : Front: L R
Sampling rate : 48.0 KHz
Bit depth : 16 bits
Compression mode : Lossy
Stream size : 251 MiB (16%)
Language : Russian
Default : Yes
Forced : No





реклама партнёра


Вернуться к началу
 Профиль  
 
   Похожие торренты   Автор   Торрент   Размер 
В этой теме нет новых непрочитанных сообщений. Монстры на каникулах 2 / Hotel Transylvania 2 [мультфильм, фэнтези, комедия, семейный, 2015] BDRip-AVC, Dub+Sub [Лицензия]

Dracon

379 | 48

1.46 ГБ

В этой теме нет новых непрочитанных сообщений. Монстры на каникулах 2 / Hotel Transylvania 2 (Генндий Тартаковский) [мультфильм, фэнтези, комедия, семейный, 2015] BDRip, Dub [Лицензия]

Dracon

417 | 20

1.46 ГБ

В этой теме нет новых непрочитанных сообщений. Монстры на каникулах 2 / Hotel Transylvania 2 (Генндий Тартаковский) [мультфильм, фэнтези, комедия, семейный, 2015] WED-DLRip-AVC, Dub [Лицензия / iTunes]

Dracon

604 | 220

1.58 ГБ

В этой теме нет новых непрочитанных сообщений. Монстры на каникулах 2 / Hotel Transylvania 2 (Генндий Тартаковский) [мультфильм, фэнтези, комедия, семейный, 2015] BDRip 1080p, Dub+Sub [Лицензия]

Dracon

386 | 86

5.99 ГБ

В этой теме нет новых непрочитанных сообщений. Монстры на каникулах 2 / Hotel Transylvania 2 (Генндий Тартаковский) [мультфильм, фэнтези, комедия, семейный, 2015] BDRip 720p, Dub+Sub [Лицензия]

Dracon

322 | 55

3.57 ГБ

В этой теме нет новых непрочитанных сообщений. Монстры на каникулах 2 / Hotel Transylvania 2 (Генндий Тартаковский) [мультфильм, фэнтези, комедия, семейный, 2015] WEB-DL 1080p, Dub [iTunes]

Dracon

2279 | 163

3.69 ГБ

В этой теме нет новых непрочитанных сообщений. Монстры на каникулах 2 / Hotel Transylvania 2 (Генндий Тартаковский) [мультфильм, фэнтези, комедия, семейный, 2015] WEB-DL 720p, Dub [iTunes]

Dracon

1110 | 84

2.98 ГБ


Начать новую тему Ответить на тему  [ 1 сообщение ] 




Для Мосгорсуда, Роскомнадзора и рекламодателей:: mosgorsud-torrent[собачка]yandex.ru