Торрент файл
скачать торрент магнет ссылка Добавлен: 24 янв 2013, 00:05
Размер: 1.46 ГБ
Сидеров: 9942
Личеров: 427
Статус: (salma3)
Автор

СообщениеДобавлено: 24 янв 2013, 00:05 

Не в сети
Супермодератор
Аватара пользователя
Дата регистрации:
15 фев 2012, 16:44
Возраст: 28
Спасибо: 6585 / 2144
Сообщения: 44093

Монстры на каникулах / Hotel Transylvania

Год выхода: 2012
Жанр: мультфильм, комедия, семейный
Режиссер: Геннадий Тартаковский / Genndy Tartakovsky
В ролях: Адам Сэндлер, Энди Сэмберг, Селена Гомес, Кевин Джеймс, Фрэн Дрешер, Стив Бушеми, Молли Шеннон, Дэвид Спейд, Си-Ло, Джон Ловиц

О фильме:
Граф Дракула для себя и своей любимой дочки построил хорошо укрытый от посторонних глаз отель, куда монстры со всего света приезжают отдохнуть от семейных забот, повседневной суеты и, конечно… людей. Но вездесущие американские туристы проникают и сюда.



Страна: США
Продолжительность: 01:31:31
Перевод: Дублированный [Лицензия]

Файл
Кодек: XviD
Качество: BDRip-[исходник: BDRemux 1080p]
Видео: 720x384 (1.85:1), 23.976 fps, XviD 65 ~2077 kbps avg, 0.313 bit/pixel
Звук: 48 kHz, AC3 Dolby Digital, 2/0 (L,R) ch, 192 kbps Constant



Раздача от:

Общее
Полное имя: Monsrty.na.kanikulah.2012.D.BDRip_[Youtracker]_by_Yarmak23.avi
Формат: AVI
Формат/Информация: Audio Video Interleave
Размер файла: 1,46 Гбайт
Продолжительность: 1 ч. 31 м.
Общий поток: 2279 Кбит/сек
Программа кодирования: VirtualDubMod 1.5.10.3 (build 2550/release)
Библиотека кодирования: VirtualDubMod build 2550/release

Видео
Идентификатор: 0
Формат: MPEG-4 Visual
Профиль формата: Advanced Simple@L5
Параметр BVOP формата: 1
Параметр QPel формата: Нет
Параметр GMC формата: Без точки перехода
Параметр матрицы формата: Выборочная
Идентификатор кодека: XVID
Идентификатор кодека/Подсказка: XviD
Продолжительность: 1 ч. 31 м.
Битрейт: 2077 Кбит/сек
Ширина: 720 пикселей
Высота: 384 пикселя
Соотношение сторон: 1,85:1
Частота кадров: 23,976 кадра/сек
Цветовое пространство: YUV
Субдискретизация насыщенности: 4:2:0
Битовая глубина: 8 бит
Тип развёртки: Прогрессивная
Метод сжатия: С потерями
Бит/(Пиксели*Кадры): 0.313
Размер потока: 1,33 Гбайт (91%)
Библиотека кодирования: XviD 65

Аудио
Идентификатор: 1
Формат: AC-3
Формат/Информация: Audio Coding 3
Расширение режима: CM (complete main)
Параметр Endianness формата: Big
Идентификатор кодека: 2000
Продолжительность: 1 ч. 31 м.
Вид битрейта: Постоянный
Битрейт: 192 Кбит/сек
Каналы: 2 канала
Расположение каналов: Front: L R
Частота: 48,0 КГц
Битовая глубина: 16 бит
Метод сжатия: С потерями
Размер потока: 126 Мбайт (8%)
Выравнивание: Разделение по промежуткам
Продолжительность промежутка: 42мс. (1,00 видеокадр)
Время предзагрузки промежутка: 500мс.



Автор рипа: Yarmak23




реклама партнёра


Вернуться к началу
 Профиль Отправить личное сообщение  
 
   Похожие торренты   Автор   Торрент   Размер 
В этой теме нет новых непрочитанных сообщений. Монстры на каникулах 2 / Hotel Transylvania 2 [мультфильм, фэнтези, комедия, семейный, 2015] BDRip-AVC, Dub+Sub [Лицензия]

Dracon

380 | 49

1.46 ГБ

В этой теме нет новых непрочитанных сообщений. Монстры на каникулах 2 / Hotel Transylvania 2 (Генндий Тартаковский) [мультфильм, фэнтези, комедия, семейный, 2015] BDRip, Dub [Лицензия]

Dracon

497 | 12

1.46 ГБ

В этой теме нет новых непрочитанных сообщений. Монстры на каникулах 2 / Hotel Transylvania 2 (Генндий Тартаковский) [мультфильм, фэнтези, комедия, семейный, 2015] BDRip 720p, Dub+Sub [Лицензия]

Dracon

345 | 56

3.57 ГБ

В этой теме нет новых непрочитанных сообщений. Монстры на каникулах 2 / Hotel Transylvania 2 (Генндий Тартаковский) [мультфильм, фэнтези, комедия, семейный, 2015] BDRip 1080p, Dub+Sub [Лицензия]

Dracon

426 | 77

5.99 ГБ

В этой теме нет новых непрочитанных сообщений. Монстры на каникулах 2 / Hotel Transylvania 2 (Генндий Тартаковский) [мультфильм, фэнтези, комедия, семейный, 2015] WED-DLRip-AVC, Dub [Лицензия / iTunes]

Dracon

607 | 221

1.58 ГБ

В этой теме нет новых непрочитанных сообщений. Монстры на каникулах 2 / Hotel Transylvania 2 (Генндий Тартаковский) [мультфильм, фэнтези, комедия, семейный, 2015] WEB-DL 720p, Dub [iTunes]

Dracon

1084 | 84

2.98 ГБ

В этой теме нет новых непрочитанных сообщений. Монстры на каникулах 2 / Hotel Transylvania 2 (Генндий Тартаковский) [мультфильм, фэнтези, комедия, семейный, 2015] WEB-DL 1080p, Dub [iTunes]

Dracon

2279 | 164

3.69 ГБ


Начать новую тему Ответить на тему  [ 1 сообщение ] 




Для Мосгорсуда, Роскомнадзора и рекламодателей:: mosgorsud-torrent[собачка]yandex.ru