Торрент файл
скачать торрент магнет ссылка Добавлен: 21 янв 2013, 12:27
Размер: 1.57 ГБ
Сидеров: 0
Личеров: 3
Автор

СообщениеДобавлено: 21 янв 2013, 12:27 

Не в сети
Зам. Админа
Аватара пользователя
Дата регистрации:
02 дек 2010, 12:39
Спасибо: 12623 / 214
Сообщения: 28012
Год выпуска: 2012
Страна: Испания
Жанр:мультфильм, приключения, семейный
Продолжительность: 1:31:55
Перевод: Профессиональный (дублированный)

Режиссер: Энрике Гато / Enrique Gato

Роли озвучивали:Оскар Барберан, Меритксель Ане, Карлес Канут, Фиона Глэскотт, Адам Джеймс, Мишель Хеннер, Мигель Анхель Дженнер, Энрикета Линарес, Мак МакДональд, Брюс Маккиннон...
Роли дублировали: Пётр Иващенко, Станислав Дужников, Федор Добронравов, Даниил Эльдаров, Марина Александрова...

Описание: Тэд — обычный чикагский строитель, страстно мечтающий о невероятных открытиях и опасных приключениях. Однажды его по ошибке принимают за известного археолога и отправляют в Перу на поиски сокровищ инков. Радости Тэда не было предела, но, похоже, она оказалась преждевременной…

релиз от:
Формат: MKV
Качество: HDRip-AVC
Видео: MPEG4 Video (H264) 720x408 (725:408) 23.976fps
Аудио: Dolby AC3 48000Hz 6ch 448kbps

семпл

General
Unique ID : 12764630094629834376571627872539784773 (0x99A60DA6B90B7CFD3088A4DE3923645)
Complete name : D:\torrent\Ted.djons.i.zaterjannyj.gorod.2012.D.mkv
Format : Matroska
Format version : Version 2
File size : 1.57 GiB
Duration : 1h 31mn
Overall bit rate : 2 446 Kbps
Writing application : XviD4PSP 6.0 / 53.6.0
Writing library : XviD4PSP 6.0 / 53.6.0

Video
ID : 1
Format : AVC
Format/Info : Advanced Video Codec
Format profile : High@L4.1
Format settings, CABAC : Yes
Format settings, ReFrames : 3 frames
Codec ID : V_MPEG4/ISO/AVC
Duration : 1h 31mn
Bit rate : 2 000 Kbps
Width : 720 pixels
Height : 408 pixels
Display aspect ratio : 16:9
Original display aspect ratio : 16:9
Frame rate mode : Variable
Frame rate : 23.976 fps
Color space : YUV
Chroma subsampling : 4:2:0
Bit depth : 8 bits
Scan type : Progressive
Bits/(Pixel*Frame) : 0.284
Stream size : 1.25 GiB (80%)
Writing library : x264 core 116 r2019M 9cc407d
Encoding settings : cabac=1 / ref=3 / deblock=1:-1:-1 / analyse=0x3:0x133 / me=hex / subme=7 / psy=1 / psy_rd=1.00:0.15 / mixed_ref=1 / me_range=16 / chroma_me=1 / trellis=1 / 8x8dct=1 / cqm=0 / deadzone=21,11 / fast_pskip=1 / chroma_qp_offset=-3 / threads=8 / sliced_threads=0 / nr=0 / decimate=1 / interlaced=0 / bluray_compat=0 / constrained_intra=0 / bframes=3 / b_pyramid=1 / b_adapt=2 / b_bias=0 / direct=3 / weightb=1 / open_gop=0 / weightp=2 / keyint=230 / keyint_min=23 / scenecut=40 / intra_refresh=0 / rc_lookahead=40 / rc=abr / mbtree=1 / bitrate=2000 / ratetol=1.0 / qcomp=0.60 / qpmin=10 / qpmax=51 / qpstep=4 / ip_ratio=1.40 / aq=1:1.00
Language : English
Default : Yes
Forced : No

Audio
ID : 2
Format : AC-3
Format/Info : Audio Coding 3
Mode extension : CM (complete main)
Codec ID : A_AC3
Duration : 1h 31mn
Bit rate mode : Constant
Bit rate : 448 Kbps
Channel(s) : 6 channels
Channel positions : Front: L C R, Side: L R, LFE
Sampling rate : 48.0 KHz
Bit depth : 16 bits
Compression mode : Lossy
Stream size : 295 MiB (18%)
Language : Russian
Default : Yes
Forced : No





реклама партнёра


Вернуться к началу
 Профиль  
 
   Похожие торренты   Автор   Торрент   Размер 
В этой теме нет новых непрочитанных сообщений. Затерянный город Z / The Lost City of Z [Боевик, драма, приключения, 2016] Blu-Ray 1080p, Dub [Лицензия]

salma3

0 | 0

21.71 ГБ

В этой теме нет новых непрочитанных сообщений. Тарзан и затерянный город / Tarzan and the Lost City [фэнтези, боевик, приключения, семейный, 1998] DVDRip, Avo

salma3

46 | 9

1.46 ГБ

В этой теме нет новых непрочитанных сообщений. Затерянный город Z / The Lost City of Z [Боевик, драма, приключения, 2016] BDRemux 1080p, Dub [Лицензия]

salma3

19 | 11

41.45 ГБ

В этой теме нет новых непрочитанных сообщений. Бриджит Джонс 3 / Bridget Jones's Baby ( Комедия, мелодрама, 2016) HDRip от FreeRutor | Лицензия

marya111

70 | 23

2.19 ГБ

В этой теме нет новых непрочитанных сообщений. Город героев / Big Hero 6 (Дон Холл, Крис Уильямс) [мультфильм, фантастика, комедия, семейный, боевик, 2014] HDRip, Dub [Лицензия]

Dracon

90 | 5

2.18 ГБ

В этой теме нет новых непрочитанных сообщений. Затерянный город Z / The Lost City of Z [Боевик, драма, биография, история, 2016] BDRip-AVC, Dub [Лицензия]

salma3

408 | 48

1.46 ГБ

В этой теме нет новых непрочитанных сообщений. Затерянный город Z / The Lost City of Z [Боевик, драма, биография, история, 2016] BDRip 720p, Dub [Лицензия]

salma3

0 | 0

8.29 ГБ


Начать новую тему Ответить на тему  [ 1 сообщение ] 




Для Мосгорсуда, Роскомнадзора и рекламодателей:: mosgorsud-torrent[собачка]yandex.ru