Торрент файл
скачать торрент магнет ссылка Добавлен: 18 янв 2013, 10:02
Размер: 1.45 ГБ
Сидеров: 4
Личеров: 2
Статус: (Dracon)
Автор

СообщениеДобавлено: 18 янв 2013, 10:02 

Не в сети
Зам. Админа
Аватара пользователя
Дата регистрации:
02 дек 2010, 12:39
Спасибо: 12623 / 214
Сообщения: 28012
«Маленький братишка - большие хлопоты»



Год выпуска: 2012
Страна: Финляндия, Германия, Дания, Ирландия
Жанр:мультфильм, комедия, приключения, семейный
Продолжительность: 01:13:00
Перевод: Профессиональный (дублированный)
Оригинальная аудиодорожка: английский
Cубтитры: русский

Режиссер: Кари Юуусонен / Kari Juusonen, Юрген Лердам / Jorgen Lerdam

Роли озвучивали: Эрик Карлсон, Кари Хиеталахти, Кари Кетонен, Юха Вейонен, Элина Книхтиля, Яакко Саарилуома, Юкка Расила, Рику Ниеминен, Пертти Койвула, Аааре Карен...

Роли дублировал: Дмитрий Курта

Описание: Новые приключения веселого и отважного олененка Нико, мечтающего, как и его легендарный отец, стать летающим оленем в упряжке Санта-Клауса. Все начинается накануне Рождества. Вместе со своими друзьями, белкой Джулиусом, лаской Вилмой и сводным братишкой Джонни Нико с нетерпением ждет Санту. Но тот снова попадает в невероятную историю. Неужели дети останутся без подарков?





Исходник: DVD9 R5
Тип релиза: DVDRip-AVC
Контейнер: MKV

Видео: 720x552@1024x552 (1.85:1), 25.000 fps, H264 ~ 2085 kbps avg, 0.210 bit/pixel
Аудио 1: 48 kHz, Dolby AC3 5.1 384 kbps, русский
Аудио 2: 48 kHz, Dolby AC3 5.1 384 kbps, английский
Формат субтитров: SoftSub (srt)

Раздача от:

Общее
Полное имя:Niko2.2012.D.DVDRip-AVC_[Youtracker]_by_avproh.mkv
Формат: Matroska
Версия формата: Version 4 / Version 2
Размер файла: 1,45 Гбайт
Продолжительность: 1 ч. 13 м.
Общий поток: 2853 Кбит/сек
Дата кодирования: UTC 2010-02-22 21:41:31
Программа кодирования: mkvmerge v5.9.0 ('On The Loose') built on Dec9 2012 15:37:01
Библиотека кодирования: libebml v1.3.0 + libmatroska v1.4.0

Видео
Идентификатор: 1
Формат: AVC
Формат/Информация: Advanced Video Codec
Профиль формата: High@L4.1
Параметр CABAC формата: Да
Параметр ReFrames формата: 11 кадров
Идентификатор кодека: V_MPEG4/ISO/AVC
Продолжительность: 1 ч. 13 м.
Битрейт: 2085 Кбит/сек
Ширина: 720 пикселей
Высота: 552 пикселя
Соотношение сторон: 1,85:1
Соотношение сторон в оригинале: 1,85:1
Частота кадров: 25,000 кадров/сек
Цветовое пространство: YUV
Субдискретизация насыщенности: 4:2:0
Битовая глубина: 8 бит
Тип развёртки: Прогрессивная
Бит/(Пиксели*Кадры): 0.210
Размер потока: 1,03 Гбайт (71%)
Библиотека кодирования: x264 core 119 r2106 07efeb4
Настройки программы: cabac=1 / ref=11 / deblock=1:-2:-1 / analyse=0x3:0x113 / me=umh / subme=9 / psy=1 / psy_rd=1.00:0.20 / mixed_ref=1 / me_range=32 / chroma_me=1 / trellis=1 / 8x8dct=1 / cqm=0 / deadzone=21,11 / fast_pskip=0 / chroma_qp_offset=-3 / threads=9 / sliced_threads=0 / nr=0 / decimate=0 / interlaced=0 / bluray_compat=0 / constrained_intra=0 / bframes=8 / b_pyramid=2 / b_adapt=2 / b_bias=0 / direct=3 / weightb=1 / open_gop=0 / weightp=2 / keyint=250 / keyint_min=25 / scenecut=40 / intra_refresh=0 / rc_lookahead=60 / rc=2pass / mbtree=1 / bitrate=2085 / ratetol=1.0 / qcomp=0.60 / qpmin=0 / qpmax=69 / qpstep=4 / cplxblur=20.0 / qblur=0.5 / ip_ratio=1.40 / aq=1:1.00
Язык: English
Default: Да
Forced: Нет

Аудио #1
Идентификатор: 2
Формат: AC-3
Формат/Информация: Audio Coding 3
Расширение режима: CM (complete main)
Параметр Endianness формата: Big
Идентификатор кодека: A_AC3
Продолжительность: 1 ч. 13 м.
Вид битрейта: Постоянный
Битрейт: 384 Кбит/сек
Каналы: 6 каналов
Расположение каналов: Front: L C R, Side: L R, LFE
Частота: 48,0 КГц
Битовая глубина: 16 бит
Метод сжатия: С потерями
Размер потока: 201 Мбайт (13%)
Язык: Russian
Default: Да
Forced: Нет

Аудио #2
Идентификатор: 3
Формат: AC-3
Формат/Информация: Audio Coding 3
Расширение режима: CM (complete main)
Параметр Endianness формата: Big
Идентификатор кодека: A_AC3
Продолжительность: 1 ч. 13 м.
Вид битрейта: Постоянный
Битрейт: 384 Кбит/сек
Каналы: 6 каналов
Расположение каналов: Front: L C R, Side: L R, LFE
Частота: 48,0 КГц
Битовая глубина: 16 бит
Метод сжатия: С потерями
Размер потока: 201 Мбайт (13%)
Язык: English
Default: Нет
Forced: Нет

Текст
Идентификатор: 4
Формат: UTF-8
Идентификатор кодека: S_TEXT/UTF8
Идентификатор кодека/Информация: UTF-8 Plain Text
Язык: Russian
Default: Нет
Forced: Нет






реклама партнёра


Вернуться к началу
 Профиль  
 
   Похожие торренты   Автор   Торрент   Размер 
В этой теме нет новых непрочитанных сообщений. Гравити Фолз / / Gravity Falls / 1 сезон, 1-20 серии из 20 [мультфильм, комедия, детектив, приключения, семейный, 2012] WEB-DLRip, Dub

salma3

340 | 111

5.65 ГБ

В этой теме нет новых непрочитанных сообщений. Альфа и Омега 5: Семейный отдых [Мультфильм, комедия, приключения, семейный, полнометражный, 2015] HDRip, Dub

Dracon

297 | 16

663.21 МБ

В этой теме нет новых непрочитанных сообщений. Полярные приключения / Polar Adventure [Мультфильм, комедия, приключения, семейный, 2015] WEB-DLRip, dUB [iTunes]

salma3

217 | 74

1.46 ГБ

В этой теме нет новых непрочитанных сообщений. Полярные приключения / Polar Adventure [Мультфильм, комедия, приключения, семейный, 2015] WEB-DLRip, dUB [iTunes]

salma3

176 | 17

744.81 МБ

В этой теме нет новых непрочитанных сообщений. Alex and Niko - Alex and Niko [Rap, Hip-hop, 2015] mp3, 320 kbps

4uva4ek

0 | 1

94.75 МБ

В этой теме нет новых непрочитанных сообщений. Джеронимо Стилтон / Geronimo Stilton / 1-2 сезоны: 52 серии из 52 [мультфильм, детектив, приключения, семейный, 2009–2012] SATRip, Dub

salma3

65 | 35

14.27 ГБ

В этой теме нет новых непрочитанных сообщений. Бабай (мультфильм, приключения, комедия, фэнтези, семейный. 2014) WEB-DLRip

Aleksandr.ru

2459 | 93

1.2 ГБ


Начать новую тему Ответить на тему  [ 1 сообщение ] 




Для Мосгорсуда, Роскомнадзора и рекламодателей:: mosgorsud-torrent[собачка]yandex.ru