Торрент файл
скачать торрент магнет ссылка Добавлен: 18 янв 2013, 09:19
Размер: 1.46 ГБ
Сидеров: 162
Личеров: 15
Статус: (Dracon)
Автор

СообщениеДобавлено: 18 янв 2013, 09:19 

Не в сети
Зам. Админа
Аватара пользователя
Дата регистрации:
02 дек 2010, 12:39
Спасибо: 12461 / 214
Сообщения: 27968
«Маленький братишка - большие хлопоты»



Год выпуска: 2012
Страна: Финляндия, Германия, Дания, Ирландия
Жанр:мультфильм, комедия, приключения, семейный
Продолжительность: 01:13:00
Перевод: Профессиональный (дублированный)
Оригинальная аудиодорожка: английский
Cубтитры: русский

Режиссер: Кари Юуусонен / Kari Juusonen, Юрген Лердам / Jorgen Lerdam

Роли озвучивали: Эрик Карлсон, Кари Хиеталахти, Кари Кетонен, Юха Вейонен, Элина Книхтиля, Яакко Саарилуома, Юкка Расила, Рику Ниеминен, Пертти Койвула, Аааре Карен...

Роли дублировал: Дмитрий Курта

Описание: Новые приключения веселого и отважного олененка Нико, мечтающего, как и его легендарный отец, стать летающим оленем в упряжке Санта-Клауса. Все начинается накануне Рождества. Вместе со своими друзьями, белкой Джулиусом, лаской Вилмой и сводным братишкой Джонни Нико с нетерпением ждет Санту. Но тот снова попадает в невероятную историю. Неужели дети останутся без подарков?





Исходник: DVD9 R5
Тип релиза: DVDRip
Контейнер: AVI

Видео: 720x384 (1.85:1), 25.000 fps, XviD ~ 2080 kbps avg, 0.301 bit/pixel
Аудио 1: 48 kHz, Dolby AC3 5.1 384 kbps, русский
Аудио 2: 48 kHz, Dolby AC3 5.1 384 kbps, английский
Формат субтитров: SoftSub (srt)

Раздача от:

Общее
Полное имя: Niko2.2012.D.DVDRip_[Youtracker]_by_avproh.avi
Формат: AVI
Формат/Информация: Audio Video Interleave
Размер файла: 1,46 Гбайт
Продолжительность: 1 ч. 13 м.
Общий поток: 2862 Кбит/сек
Программа кодирования: VirtualDubMod 1.5.10.3 (build 2550/release)
Библиотека кодирования: VirtualDubMod build 2550/release

Видео
Идентификатор: 0
Формат: MPEG-4 Visual
Профиль формата: Advanced Simple@L5
Параметр BVOP формата: 1
Параметр QPel формата: Нет
Параметр GMC формата: Без точки перехода
Параметр матрицы формата: Выборочная
Идентификатор кодека: XVID
Идентификатор кодека/Подсказка: XviD
Продолжительность: 1 ч. 13 м.
Битрейт: 2080 Кбит/сек
Ширина: 720 пикселей
Высота: 384 пикселя
Соотношение сторон: 1,85:1
Частота кадров: 25,000 кадров/сек
Цветовое пространство: YUV
Субдискретизация насыщенности: 4:2:0
Битовая глубина: 8 бит
Тип развёртки: Прогрессивная
Метод сжатия: С потерями
Бит/(Пиксели*Кадры): 0.301
Размер потока: 1,06 Гбайт (73%)
Библиотека кодирования: XviD 65

Аудио #1
Идентификатор: 1
Формат: AC-3
Формат/Информация: Audio Coding 3
Расширение режима: CM (complete main)
Параметр Endianness формата: Big
Идентификатор кодека: 2000
Продолжительность: 1 ч. 12 м.
Вид битрейта: Постоянный
Битрейт: 384 Кбит/сек
Каналы: 6 каналов
Расположение каналов: Front: L C R, Side: L R, LFE
Частота: 48,0 КГц
Битовая глубина: 16 бит
Метод сжатия: С потерями
Размер потока: 200 Мбайт (13%)
Выравнивание: Разделение по промежуткам
Продолжительность промежутка: 40мс. (1,00 видеокадр)
Время предзагрузки промежутка: 500мс.

Аудио #2
Идентификатор: 2
Формат: AC-3
Формат/Информация: Audio Coding 3
Расширение режима: CM (complete main)
Параметр Endianness формата: Big
Идентификатор кодека: 2000
Продолжительность: 1 ч. 12 м.
Вид битрейта: Постоянный
Битрейт: 384 Кбит/сек
Каналы: 6 каналов
Расположение каналов: Front: L C R, Side: L R, LFE
Частота: 48,0 КГц
Битовая глубина: 16 бит
Метод сжатия: С потерями
Размер потока: 200 Мбайт (13%)
Выравнивание: Разделение по промежуткам
Продолжительность промежутка: 40мс. (1,00 видеокадр)
Время предзагрузки промежутка: 500мс.






реклама партнёра


Вернуться к началу
 Профиль  
 
   Похожие торренты   Автор   Торрент   Размер 
В этой теме нет новых непрочитанных сообщений. Гравити Фолз / / Gravity Falls / 1 сезон, 1-20 серии из 20 [мультфильм, комедия, детектив, приключения, семейный, 2012] WEB-DLRip, Dub

salma3

335 | 111

5.65 ГБ

В этой теме нет новых непрочитанных сообщений. Рио 2 / Rio 2 [Мультфильм, комедия, приключения, семейный, 2014] DVDRip, dub [звук с TS]

Dracon

356 | 3

808.88 МБ

В этой теме нет новых непрочитанных сообщений. Рио 2 / Rio 2 (Карлос Салдана) [2014, Мультфильм, комедия, приключения, семейный, DVDRip] Dub Звук с TS

Nickolas3435

116 | 3

1.37 ГБ

В этой теме нет новых непрочитанных сообщений. Альфа и Омега 5: Семейный отдых [Мультфильм, комедия, приключения, семейный, полнометражный, 2015] HDRip, Dub

Dracon

297 | 16

663.21 МБ

В этой теме нет новых непрочитанных сообщений. Лего. Фильм / The Lego Movie [мультфильм, фэнтези, комедия, приключения, семейный, 2014] DVDRip, dub [Звук с TS]

Dracon

238 | 6

1.37 ГБ

В этой теме нет новых непрочитанных сообщений. Белка и Стрелка: Лунные приключения [мультфильм, комедия, приключения, семейный, 2013] WEB-DLRip

Dracon

301 | 8

1.37 ГБ

В этой теме нет новых непрочитанных сообщений. Белка и Стрелка: Лунные приключения [мультфильм, комедия, приключения, семейный, 2013] WEB-DL 720p

Dracon

40 | 4

2.32 ГБ


Начать новую тему Ответить на тему  [ 1 сообщение ] 




Для Мосгорсуда, Роскомнадзора и рекламодателей:: mosgorsud-torrent[собачка]yandex.ru