Торрент файл
скачать торрент магнет ссылка Добавлен: 05 янв 2013, 20:51
Размер: 3.55 ГБ
Сидеров: 1
Личеров: 2
Статус: (Dracon)
Автор

СообщениеДобавлено: 05 янв 2013, 20:51 

Не в сети
Зам. Админа
Аватара пользователя
Дата регистрации:
02 дек 2010, 12:39
Спасибо: 12460 / 214
Сообщения: 27968

Год выхода: 2012
Жанр: Мультфильм, приключения, семейный
Режиссер: Энрике Гато
В ролях: Оскар Барберан, Меритксель Ане, Карлес Канут, Фиона Глэскотт, Адам Джеймс, Мишель Хеннер, Мигель Анхель Дженнер, Энрикета Линарес, Мак МакДональд, Брюс Маккиннон

О фильме:
Тэд — обычный чикагский строитель, страстно мечтающий о невероятных открытиях и опасных приключениях. Однажды его по ошибке принимают за известного археолога и отправляют в Перу на поиски сокровищ инков. Радости Тэда не было предела, но, похоже, она оказалась преждевременной…



Страна: Испания
Продолжительность: 01:32:00
Перевод: Дублированный [Чистый Звук]

Кодек: AVC
Качество: BDRip 720p
Видео: 1280x720, 24 fps, 5400 Kbps
Звук: MP3, 44.1 kHz, 2 ch, 128 Kbps
Дополнительно: Сохранены оригинальные чаптеры как на Blu-Ray.

General
Unique ID: 178356001184937519907133484703464996534 (0x862E1DC8BDD925C4BC9534C51BA6BEB6)
Complete name: F:Загрузки µTorrentTed.djons.i.zaterjannyj.gorod.2012.D.BDRip.720p.mkv
Format: Matroska
Format version: Version 2
File size: 3.55 GiB
Duration: 1h 32mn
Overall bit rate: 5 529 Kbps
Movie name: by sstonecold
Encoded date: UTC 2013-01-05 11:33:56
Writing application: mkvmerge v5.4.0 ('Piper') built on Mar 10 2012 13:34:39
Writing library: libebml v1.2.3 + libmatroska v1.3.0

Video
ID: 1
Format: AVC
Format/Info: Advanced Video Codec
Format profile: Main@L3.1
Format settings, CABAC: Yes
Format settings, ReFrames: 4 frames
Muxing mode: Header stripping
Codec ID: V_MPEG4/ISO/AVC
Duration: 1h 32mn
Bit rate: 5 400 Kbps
Width: 1 280 pixels
Height: 720 pixels
Display aspect ratio: 16:9
Frame rate mode: Variable
Frame rate: 24.000 fps
Color space: YUV
Chroma subsampling: 4:2:0
Bit depth: 8 bits
Scan type: Progressive
Bits/(Pixel*Frame): 0.244
Stream size: 3.40 GiB (96%)
Writing library: x264 core 120
Encoding settings: cabac=1 / ref=1 / deblock=1:0:0 / analyse=0x1:0x111 / me=hex / subme=2 / psy=1 / psy_rd=1.00:0.00 / mixed_ref=0 / me_range=16 / chroma_me=1 / trellis=0 / 8x8dct=0 / cqm=0 / deadzone=21,11 / fast_pskip=1 / chroma_qp_offset=0 / threads=6 / sliced_threads=0 / nr=0 / decimate=1 / interlaced=0 / bluray_compat=0 / constrained_intra=0 / bframes=3 / b_pyramid=2 / b_adapt=1 / b_bias=0 / direct=1 / weightb=1 / open_gop=0 / weightp=1 / keyint=240 / keyint_min=24 / scenecut=40 / intra_refresh=0 / rc_lookahead=10 / rc=2pass / mbtree=1 / bitrate=5400 / ratetol=1.0 / qcomp=0.60 / qpmin=3 / qpmax=69 / qpstep=4 / cplxblur=20.0 / qblur=0.5 / ip_ratio=1.40 / aq=1:1.00
Language: English
Default: Yes
Forced: No
Color primaries: BT.709-5, BT.1361, IEC 61966-2-4, SMPTE RP177
Transfer characteristics: BT.709-5, BT.1361
Matrix coefficients: BT.709-5, BT.1361, IEC 61966-2-4 709, SMPTE RP177

Audio
ID: 2
Format: MPEG Audio
Format version: Version 1
Format profile: Layer 3
Mode: Joint stereo
Mode extension: MS Stereo
Muxing mode: Header stripping
Codec ID: A_MPEG/L3
Codec ID/Hint: MP3
Duration: 1h 32mn
Bit rate mode: Constant
Bit rate: 128 Kbps
Channel(s): 2 channels
Sampling rate: 44.1 KHz
Compression mode: Lossy
Stream size: 84.2 MiB (2%)
Language: Russian
Default: Yes
Forced: Yes

Menu
00:00:00.000: en:Chapter 1
00:08:02.833: en:Chapter 2
00:15:26.916: en:Chapter 3
00:21:31.083: en:Chapter 4
00:30:28.333: en:Chapter 5
00:36:06.208: en:Chapter 6
00:44:17.166: en:Chapter 7
00:53:29.958: en:Chapter 8
01:04:51.458: en:Chapter 9
01:09:21.333: en:Chapter 10
01:15:15.416: en:Chapter 11
01:23:11.249: en:Chapter 12




реклама партнёра


Вернуться к началу
 Профиль  
 
   Похожие торренты   Автор   Торрент   Размер 
В этой теме нет новых непрочитанных сообщений. Оз: Возвращение в Изумрудный Город / Legends of Oz: Dorothy's Return [мультфильм, мюзикл, семейный, 2013] BDRip 720p, dub [Чистый звук]

Dracon

3 | 2

3.4 ГБ

В этой теме нет новых непрочитанных сообщений. Город героев / Big Hero 6 (Дон Холл, Крис Уильямс) [мультфильм, фантастика, комедия, семейный, боевик, 2014] BDRip 720p, dub [Чистый звук]

Dracon

14 | 3

3.37 ГБ

В этой теме нет новых непрочитанных сообщений. Оз: Возвращение в Изумрудный Город / Legends of Oz: Dorothy's Return [мультфильм, мюзикл, семейный, 2013] BDRip 1080p, dub [Чистый звук]

Dracon

2 | 2

5.59 ГБ

В этой теме нет новых непрочитанных сообщений. Город героев / Big Hero 6 (Дон Холл, Крис Уильямс) [мультфильм, фантастика, комедия, семейный, боевик, 2014] WEB-DLRip 720p, dub [Чистый звук]

Dracon

29 | 2

3.18 ГБ

В этой теме нет новых непрочитанных сообщений. Феи: Легенда о чудовище / Legend of the NeverBeast (Стив Лотер) [мультфильм, фэнтези, приключения, семейный, 2014] BDRip 720p, dub [чистый звук]

Dracon

39 | 4

2.39 ГБ

В этой теме нет новых непрочитанных сообщений. Рио 2 / Rio 2 [Мультфильм, комедия, приключения, семейный, 2014] BDRip 1080p, dub [Чистый звук]

Dracon

274 | 6

8.19 ГБ

В этой теме нет новых непрочитанных сообщений. Приключения мистера Пибоди и Шермана / Mr. Peabody & Sherman [Мультфильм, фантастика, комедия, приключения, семейный, 2014] WEB-DL 720p, dub [Чистый звук]

Dracon

346 | 5

2.68 ГБ


Начать новую тему Ответить на тему  [ 1 сообщение ] 




Для Мосгорсуда, Роскомнадзора и рекламодателей:: mosgorsud-torrent[собачка]yandex.ru