Торрент файл
скачать торрент магнет ссылка Добавлен: 20 дек 2012, 20:25
Размер: 1.47 ГБ
Сидеров: 29
Личеров: 2
Автор

СообщениеДобавлено: 20 дек 2012, 20:25 

Не в сети
5 Звёзд
Аватара пользователя
Дата регистрации:
20 апр 2012, 10:59
Возраст: 35
Спасибо: 941 / 102
Сообщения: 1292
Откуда: Москва

Страна: Россия
Год выпуска: 2012
Жанр:мультфильм, детский

Продолжительность: 19 серий ~ 5 минут

Режиссеры: Елизавета Скворцова, Анна Соловьёва, Леонид Шмельков, Елена Куркова

В ролях: Лариса Брохман, Вадим Медведев, Мириам Сихон, Тимофей Трибунцев

Описание: Анимационный сериал по рассказам российских писателей.






Исходник: 2 x DVD5 R5
Тип релиза: DVDRip
Контейнер: AVI

Видео: 720x400 (16:9), 25 fps, XviD ~ 2000 kbps avg, 0.278 bit/pixel
Аудио: 48 kHz, AC3, 2 ch, 192.00 kbps, русский
Дополнительно: Сэмпл не ставил, маленькие серии, скачайте одну и оцените качество.


Раздача от:


Общее
Полное имя: Vezuha.2010.O.DVDRip_[Youtracker]_by_avproh\01.avi
Формат: AVI
Формат/Информация: Audio Video Interleave
Размер файла: 78,9 Мбайт
Продолжительность: 5 м. 0 с.
Общий поток: 2206 Кбит/сек
Программа кодирования: VirtualDubMod 1.5.10.3 (build 2550/release)
Библиотека кодирования: VirtualDubMod build 2550/release

Видео
Идентификатор: 0
Формат: MPEG-4 Visual
Профиль формата: Advanced Simple@L5
Параметр BVOP формата: 1
Параметр QPel формата: Нет
Параметр GMC формата: Без точки перехода
Параметр матрицы формата: Выборочная
Идентификатор кодека: XVID
Идентификатор кодека/Подсказка: XviD
Продолжительность: 5 м. 0 с.
Битрейт: 2004 Кбит/сек
Ширина: 720 пикселей
Высота: 400 пикселей
Соотношение сторон: 16:9
Частота кадров: 25,000 кадров/сек
Цветовое пространство: YUV
Субдискретизация насыщенности: 4:2:0
Битовая глубина: 8 бит
Тип развёртки: Прогрессивная
Метод сжатия: С потерями
Бит/(Пиксели*Кадры): 0.278
Размер потока: 71,7 Мбайт (91%)
Библиотека кодирования: XviD 65

Аудио
Идентификатор: 1
Формат: AC-3
Формат/Информация: Audio Coding 3
Расширение режима: CM (complete main)
Параметр Endianness формата: Big
Идентификатор кодека: 2000
Продолжительность: 4 м. 59 с.
Вид битрейта: Постоянный
Битрейт: 192 Кбит/сек
Каналы: 2 канала
Расположение каналов: Front: L R
Частота: 48,0 КГц
Битовая глубина: 16 бит
Метод сжатия: С потерями
Размер потока: 6,87 Мбайт (9%)
Выравнивание: Разделение по промежуткам
Продолжительность промежутка: 40мс. (1,00 видеокадр)
Время предзагрузки промежутка: 500мс.

Выпуск № 1: Моя собака любит джаз:
01. Блохнесское чудовище
02. Нечаянно нагрянет
03. Китовая любовь
04. Рыбный день, часть первая
05. Рыбный день, часть вторая
06. Однажды директор
07. Репетитор
08. Черные дыры
09. Тайна пустой клетки
10. Моя собака любит джаз

Выпуск № 2: Супер супер супер мальчик:
11. Супер супер супер мальчик
12. Сейчас он придет и будет весело
13. Василий Васильевич
14. Поликлиника, часть первая
15. Поликлиника, часть вторая
16. Нос
17. Все мы инопланетяне на этой земле
18. Вместо папы на работу
19. Путник запоздалый







реклама партнёра


Вернуться к началу
 Профиль Отправить личное сообщение  
 
   Похожие торренты   Автор   Торрент   Размер 
В этой теме нет новых непрочитанных сообщений. Олли и сокровища пиратов / Dive Olly Dive and the Pirate Treasure [мультфильм, семейный, детский, 2014] DVDRip, Dub [лицензия]

Dracon

767 | 24

1.46 ГБ

В этой теме нет новых непрочитанных сообщений. Чебурашка / Cheburashka [Мультфильм, детский, семейный, 2014] WEBRip

Dracon

250 | 7

697.83 МБ

В этой теме нет новых непрочитанных сообщений. Чебурашка / Cheburashka [Мультфильм, детский, семейный, 2014] DVD5 [Лицензия]

Dracon

361 | 21

3.88 ГБ

В этой теме нет новых непрочитанных сообщений. Летающие звери [S01] [мультфильм, короткометражка, детский, 2012] DVD5 [Лицензия]

Ανδρέας

7 | 5

2.85 ГБ

В этой теме нет новых непрочитанных сообщений. Чебурашка / Cheburashka [Мультфильм, детский, семейный, 2014] WEBRip 720p

Dracon

1253 | 14

1.99 ГБ

В этой теме нет новых непрочитанных сообщений. Пингвиненок Пороро / Pororo the Little Penguin / 1 сезон: 1-52 серии из 52 [мультфильм, детский, 2007] SATRip, Dub

salma3

812 | 151

4.43 ГБ

В этой теме нет новых непрочитанных сообщений. Пингвиненок Пороро / Pororo the Little Penguin / 3 сезон: 1-52 серии из 52 [мультфильм, детский, 2007] SATRip, Dub

salma3

107 | 17

4.81 ГБ


Начать новую тему Ответить на тему  [ 1 сообщение ] 




Для Мосгорсуда, Роскомнадзора и рекламодателей:: mosgorsud-torrent[собачка]yandex.ru