Торрент файл
скачать торрент магнет ссылка Добавлен: 17 дек 2012, 11:54
Размер: 2.19 ГБ
Сидеров: 22
Личеров: 2
Статус: (Dracon)
Автор

СообщениеДобавлено: 17 дек 2012, 11:54 

Не в сети
Зам. Админа
Аватара пользователя
Дата регистрации:
02 дек 2010, 12:39
Спасибо: 12460 / 214
Сообщения: 27968

Год выхода: 2012
Жанр:мультфильм, фэнтези, семейный
Режиссер: Роберт Винс
В ролях: ЭТимоти Далтон, Люси Хейл, Меган Хилти, Анжелика Хьюстон, Мэтт Лантер, Джесси МакКартни, Мэй Уитман, Люси Лью, Рэйвен, Дебби Райан...

Сюжет фильма: Динь-Динь и ее подруги всегда боялись пересекать границу с Зимним лесом, ведь существует поверье, что там очень опасно. В один прекрасный день Динь-Динь, сгорая от любопытства, подходит вплотную к лесу, и ее крылья неожиданно начинают блестеть и переливаться. Завороженная Динь, желая узнать тайну волшебных крыльев, кутается в теплое пальто и отправляется в глубь таинственного леса, где ее ждет неожиданное открытие

Продолжительность: 01:15:04
Перевод: Профессиональный (дублированный) [Лицензия]
Выпущено: США

Качество: BDRip [720p]
Видео: 1280x720, 3533 Кбит/сек, 19,181 кадр/сек, AVC, x264, 16:9, 0.200 Бит/[Пиксели*Кадры], 2pass
Аудио: AC-3, 640 Кбит/сек, 6 канала(ов), 48,0 КГц
Размер: 2,19 ГБ
Релиз от:






Формат: Matroska
Версия формата: Version 2
Размер файла: 2,19 Гбайт
Продолжительность: 1 ч. 15 м.
Общий поток: 4175 Кбит/сек
Дата кодирования: UTC 2012-12-16 23:08:46
Программа кодирования: mkvmerge v3.2.0 ('Beginnings') built on Feb 12 2010 16:46:17
Библиотека кодирования: libebml v0.7.9 + libmatroska v0.8.1

Видео
Идентификатор: 1
Формат: AVC
Формат/Информация: Advanced Video Codec
Профиль формата: High@L3.1
Параметр CABAC формата: Да
Параметр ReFrames формата: 4 кадра
Идентификатор кодека: V_MPEG4/ISO/AVC
Продолжительность: 1 ч. 15 м.
Битрейт: 3533 Кбит/сек
Ширина: 1280 пикселей
Высота: 720 пикселей
Соотношение сторон: 16:9
Частота кадров: 19,181 кадров/сек
Цветовое пространство: YUV
Субдискретизация насыщенности: 4:2:0
Битовая глубина: 8 бит
Тип развёртки: Прогрессивная
Бит/(Пиксели*Кадры): 0.200
Размер потока: 1,81 Гбайт (83%)
Заголовок: Secret of the Wings
Библиотека кодирования: x264 core 129 r2230 1cffe9f
Настройки программы: cabac=1 / ref=3 / deblock=1:0:0 / analyse=0x3:0x133 / me=hex / subme=7 / psy=1 / psy_rd=1.00:0.00 / mixed_ref=1 / me_range=16 / chroma_me=1 / trellis=1 / 8x8dct=1 / cqm=0 / deadzone=21,11 / fast_pskip=1 / chroma_qp_offset=-2 / threads=6 / lookahead_threads=1 / sliced_threads=0 / nr=0 / decimate=1 / interlaced=0 / bluray_compat=0 / constrained_intra=0 / bframes=3 / b_pyramid=2 / b_adapt=1 / b_bias=0 / direct=1 / weightb=1 / open_gop=0 / weightp=2 / keyint=192 / keyint_min=19 / scenecut=40 / intra_refresh=0 / rc_lookahead=40 / rc=2pass / mbtree=1 / bitrate=3533 / ratetol=1.0 / qcomp=0.60 / qpmin=10 / qpmax=51 / qpstep=4 / cplxblur=20.0 / qblur=0.5 / ip_ratio=1.40 / aq=1:1.00
Язык: English
Default: Да
Forced: Нет

Аудио
Идентификатор: 2
Формат: AC-3
Формат/Информация: Audio Coding 3
Расширение режима: CM (complete main)
Параметр Endianness формата: Big
Идентификатор кодека: A_AC3
Продолжительность: 1 ч. 15 м.
Вид битрейта: Постоянный
Битрейт: 640 Кбит/сек
Каналы: 6 каналов
Расположение каналов: Front: L C R, Side: L R, LFE
Частота: 48,0 КГц
Битовая глубина: 16 бит
Метод сжатия: С потерями
Размер потока: 344 Мбайт (15%)
Заголовок: Русский дубляж [лицензия]
Язык: Russian
Default: Да
Forced: Нет




реклама партнёра


Вернуться к началу
 Профиль  
 
   Похожие торренты   Автор   Торрент   Размер 
В этой теме нет новых непрочитанных сообщений. Тайна Мунакра / The Secret of Moonacre [фэнтези, приключения, семейный, 2008] BDRip, Dub [Лицензия]

salma3

266 | 10

1.46 ГБ

В этой теме нет новых непрочитанных сообщений. Невероятная тайна Лулу / Loulou, l'incroyable secret (Эрик Омон) [мультфильм, семейный, 2013] BDRip 1080p, Dub [iTunes]

Dracon

273 | 60

4.59 ГБ

В этой теме нет новых непрочитанных сообщений. Ночь в музее: Секрет гробницы / Night at the Museum: Secret of the Tomb (Шон Леви) [Фэнтези, комедия, приключения, семейный, 2015] BDRip 720p, Dub+Sub [Лицензия]

Dracon

208 | 17

3.66 ГБ

В этой теме нет новых непрочитанных сообщений. Дух живого леса / Espiritu del bosque [мультфильм, семейный, 2008] DVDRip, Dub [Лицензия]

salma3

140 | 11

1.46 ГБ

В этой теме нет новых непрочитанных сообщений. Холодное сердце / Frozen [Мультфильм, фэнтези, комедия, приключения, семейный, 2013] BDRip 720p, Dub+Sub [Лицензия]

Dracon

1219 | 26

4.37 ГБ

В этой теме нет новых непрочитанных сообщений. Дом / Home (Тим Джонсон) [мультфильм, фантастика, фэнтези, комедия, приключения, семейный, 2015] BDRip 720p, Dub+Sub [лицензия]

Dracon

0 | 0

4.8 ГБ

В этой теме нет новых непрочитанных сообщений. Невероятная тайна Лулу / Loulou, l'incroyable secret (Эрик Омон) [мультфильм, семейный, 2013] HDRip, Dub [iTunes]

Dracon

494 | 63

1.37 ГБ


Начать новую тему Ответить на тему  [ 1 сообщение ] 




Для Мосгорсуда, Роскомнадзора и рекламодателей:: mosgorsud-torrent[собачка]yandex.ru