Торрент файл
скачать торрент магнет ссылка Добавлен: 05 дек 2012, 21:06
Размер: 1.45 ГБ
Сидеров: 11
Личеров: 4
Автор

СообщениеДобавлено: 05 дек 2012, 21:06 

Не в сети
Зам. Админа
Аватара пользователя
Дата регистрации:
02 дек 2010, 12:39
Спасибо: 12623 / 214
Сообщения: 28012
Паранорман, или Как приручить зомби / ParaNorman
«You don't become a hero by being normal.»

Страна: США
Жанр:мультфильм, ужасы, фэнтези, комедия, приключения,
Продолжительность: 01:32:15
Год выпуска: 2012

Перевод: Профессиональный (дублированный) [Лицензия]
Русские субтитры: нет

Режиссёр: Крис Батлер / Chris Butler, Сэм Фелл / Sam Fell

В ролях: Коди Смит-МакФи, Таккер Албрицци, Анна Кендрик, Кейси Аффлек, Кристофер Минц-Плассе, Лесли Манн, Джефф Гарлин, Илэйн Стритч, Бернард Хилл, Джоделль Ферланд

Описание: Норман, Паранорман. Единственная надежда полусонного городка в борьбе с полчищами нечисти. Его оружие — супер-мега-дар: умение общаться с призраками. Впрочем, мертвецы — не главная опасность, куда хуже — глупые взрослые с дробовиками наперевес.



Автор рипа: S.T.A.L.K.E.R.2 (aka Stalker oK)

Сэмпл:

Качество видео: HDRip-AVC [BDRip 720p]
Формат видео: MKV

Видео: 1870 Кбит/сек, 960*400 (2,40:1), в 23,976 кадр/сек, AVC
Аудио: Russian, 384 Кбит/сек, 48,0 КГц, 16 бит, 6 канала(ов), AC-3


Общее
Уникальный идентификатор: 239022912382476008708838821661250027622 (0xB3D223707D592B1E8DD618EEBE460066)
Полное имя: D:TempМои релизыParanorman_2012_HDRip_AVC_Dub.mkv
Формат: Matroska
Размер файла: 1,45 Гбайт
Продолжительность: 1 ч. 32 м.
Общий поток: 2255 Кбит/сек
Название фильма: Paranorman (2012) (rip by S.T.A.L.K.E.R.2)
Дата кодирования: UTC 2012-12-05 16:27:54
Программа кодирования: mkvmerge v5.6.0 ('Kenya Kane') built on May 27 2012 16:44:04
Библиотека кодирования: libebml v1.2.3 + libmatroska v1.3.0

Видео
Идентификатор: 1
Формат: AVC
Формат/Информация: Advanced Video Codec
Профиль формата: High@L4.1
Параметр CABAC формата: Да
Параметр ReFrames формата: 8 кадры
Идентификатор кодека: V_MPEG4/ISO/AVC
Продолжительность: 1 ч. 32 м.
Битрейт: 1870 Кбит/сек
Ширина: 960 пикс.
Высота: 400 пикс.
Соотношение сторон: 2,40:1
Частота кадров: 23,976 кадр/сек
Цветовое пространство: YUV
Подвыборка цветности: 4:2:0
Битовая глубина: 8 бит
Тип развёртки: Прогрессивная
Бит/(Пиксели*Кадры): 0.203
Размер потока: 1,18 Гбайт (81%)
Библиотека кодирования: x264 core 125 r2200 999b753
Настройки программы: cabac=1 / ref=8 / deblock=1:-2:-1 / analyse=0x3:0x113 / me=umh / subme=11 / psy=1 / psy_rd=1.00:0.05 / mixed_ref=1 / me_range=32 / chroma_me=1 / trellis=2 / 8x8dct=1 / cqm=0 / deadzone=21,11 / fast_pskip=0 / chroma_qp_offset=-3 / threads=8 / lookahead_threads=1 / sliced_threads=0 / nr=0 / decimate=0 / interlaced=0 / bluray_compat=0 / constrained_intra=0 / bframes=10 / b_pyramid=2 / b_adapt=2 / b_bias=0 / direct=1 / weightb=1 / open_gop=0 / weightp=2 / keyint=240 / keyint_min=23 / scenecut=40 / intra_refresh=0 / rc_lookahead=40 / rc=2pass / mbtree=1 / bitrate=1870 / ratetol=1.0 / qcomp=0.60 / qpmin=10 / qpmax=51 / qpstep=4 / cplxblur=20.0 / qblur=0.5 / vbv_maxrate=50000 / vbv_bufsize=50000 / nal_hrd=none / ip_ratio=1.40 / aq=1:1.00
Язык: English

Аудио
Идентификатор: 2
Формат: AC-3
Формат/Информация: Audio Coding 3
Расширение режима: CM (complete main)
Идентификатор кодека: A_AC3
Продолжительность: 1 ч. 32 м.
Вид битрейта: Постоянный
Битрейт: 384 Кбит/сек
Канал(ы): 6 канала(ов)
Расположение каналов: Front: L C R, Side: L R, LFE
Частота: 48,0 КГц
Битовая глубина: 16 бит
Метод сжатия: С потерями
Размер потока: 253 Мбайт (17%)
Заголовок: Dub - License
Язык: Russian






реклама партнёра


Вернуться к началу
 Профиль  
 
   Похожие торренты   Автор   Торрент   Размер 
В этой теме нет новых непрочитанных сообщений. Как приручить дракона:Коллекция / HOW TO TRAIN YOUR DRAGON:COLLECTION (Дин ДеБлуа, Крис Сандерс,) [2010- 2014, Мультфильм, фэнтези, комедия, приключения, семейный, ВDRip-AVC] [1080p] [Dub (Лицензия)]

Враг Нароода

6 | 3

11.05 ГБ

В этой теме нет новых непрочитанных сообщений. Три богатыря: Ход конем (Константин Феоктистов) [мультфильм, комедия, приключения, фэнтези, 2014] HDRip [Лицензия]

Dracon

23 | 2

702.85 МБ

В этой теме нет новых непрочитанных сообщений. Три богатыря: Ход конем (Константин Феоктистов) [мультфильм, комедия, приключения, фэнтези, 2014] HDRip [Лицензия]

Dracon

51 | 3

1.37 ГБ

В этой теме нет новых непрочитанных сообщений. Оз: Нашествие летучих обезьян / Guardianes de Oz (Альберто Мар) [мультфильм, фэнтези, приключения, 2015] HDRip, Dub [Лицензия]

Dracon

2 | 1

1.46 ГБ

В этой теме нет новых непрочитанных сообщений. Стриптиз от зомби / Зомби-стриптизерши / Zombie Strippers! [ужасы, комедия, 2008] BDRemux, Mvo

salma3

14 | 6

21.68 ГБ

В этой теме нет новых непрочитанных сообщений. Аисты / Storks [мультфильм, фэнтези, комедия, приключения, семейный, 2016] BDRip-AVC, Dub [Лицензия]

salma3

376 | 111

2.18 ГБ

В этой теме нет новых непрочитанных сообщений. Аисты / Storks [мультфильм, фэнтези, комедия, приключения, семейный, 2016] BDRip 1080p, Dub [Лицензия]

salma3

59 | 14

8.86 ГБ


Начать новую тему Ответить на тему  [ 1 сообщение ] 




Для Мосгорсуда, Роскомнадзора и рекламодателей:: mosgorsud-torrent[собачка]yandex.ru