Торрент файл
скачать торрент магнет ссылка Добавлен: 30 ноя 2012, 14:19
Размер: 1.44 ГБ
Сидеров: 15
Личеров: 3
Статус: (salma3)
Автор

СообщениеДобавлено: 30 ноя 2012, 14:19 

Не в сети
Супермодератор
Аватара пользователя
Дата регистрации:
15 фев 2012, 16:44
Возраст: 27
Спасибо: 5121 / 2089
Сообщения: 17282
Приключения «Карфагена» / Les naufrages de Carthage

Год выхода: 2006
Жанр: Мультфильм, приключения
Режиссер: Абдэл(Абделькадер) Бельхади


О фильме:
Энергичная команда авантюристов во главе с десятилетним мальчиком путешествует во времени на борту волшебного корабля, исследуя берега античного Средиземноморья. Наши герои — лидер группы Седрик, его дедушка-профессор Сефроу, загадочный солдат из королевства Нумидии Сид, неунывающая Гадда, сварливый Котар и, конечно же Осел!, Хамура. На пути они сталкиваются с бесчисленным количеством разных людей и существ, переживают удивительные события и приключения. Их Миссия — исследовать историю и написать книгу о невероятных событиях в истории человечества…


Страна: Франция
Продолжительность: 01:17:24
Перевод: профессиональный (полное дублирование)

Файл
Кодек: XviD
Качество: DVDRip
Видео: 704x416 (16:9), 25.000fps, MPEG-4 Visual (XviD), ~ 2018Kbps avg, 0.276bit/pixel
Аудио#1: (русский) 48.0KHz, AC3, 6 ch, ~ 448Kbps avg
Аудио#2: (французский) 48.0KHz, AC3, 2 ch, ~ 192Kbps avg

Релиз-Группа: Автор: Aradon

Общее
Полное имя: D:\загрузка\les_naufrages_de_carthage_[tfile.me]\les_naufrages_de_carthage_[tfile.me].avi
Формат: AVI
Формат/Информация: Audio Video Interleave
Размер файла: 1,44 Гбайт
Продолжительность: 1 ч. 17 м.
Общий поток: 2672 Кбит/сек
Программа кодирования: VirtualDubMod 1.5.10.2 (build 2540/release)
Библиотека кодирования: VirtualDubMod build 2540/release
Видео
Идентификатор: 0
Формат: MPEG-4 Visual
Профиль формата: Advanced Simple@L5
Параметр BVOP формата: 1
Параметр QPel формата: Нет
Параметр GMC формата: Без точки перехода
Параметр матрицы формата: Default (H.263)
Идентификатор кодека: XVID
Идентификатор кодека/Подсказка: XviD
Продолжительность: 1 ч. 17 м.
Битрейт: 2018 Кбит/сек
Ширина: 704 пикселя
Высота: 416 пикселей
Соотношение сторон: 16:9
Частота кадров: 25,000 кадров/сек
Цветовое пространство: YUV
Субдискретизация насыщенности: 4:2:0
Битовая глубина: 8 бит
Тип развёртки: Прогрессивная
Метод сжатия: С потерями
Бит/(Пиксели*Кадры): 0.276
Размер потока: 1,09 Гбайт (76%)
Библиотека кодирования: XviD 1.2.1 (UTC 2008-12-04)
Аудио #1
Идентификатор: 1
Формат: AC-3
Формат/Информация: Audio Coding 3
Расширение режима: CM (complete main)
Идентификатор кодека: 2000
Продолжительность: 1 ч. 17 м.
Вид битрейта: Постоянный
Битрейт: 448 Кбит/сек
Каналы: 6 каналов
Расположение каналов: Front: L C R, Side: L R, LFE
Частота: 48,0 КГц
Битовая глубина: 16 бит
Метод сжатия: С потерями
Размер потока: 248 Мбайт (17%)
Выравнивание: Разделение по промежуткам
Продолжительность промежутка: 40мс. (1,00 видеокадр)
Время предзагрузки промежутка: 500мс.
Заголовок: Русский (Дубляж) [tfile.me]
Аудио #2
Идентификатор: 2
Формат: AC-3
Формат/Информация: Audio Coding 3
Расширение режима: CM (complete main)
Идентификатор кодека: 2000
Продолжительность: 1 ч. 17 м.
Вид битрейта: Постоянный
Битрейт: 192 Кбит/сек
Каналы: 2 канала
Расположение каналов: Front: L R
Частота: 48,0 КГц
Битовая глубина: 16 бит
Метод сжатия: С потерями
Размер потока: 106 Мбайт (7%)
Выравнивание: Разделение по промежуткам
Продолжительность промежутка: 40мс. (1,00 видеокадр)
Время предзагрузки промежутка: 500мс.
Заголовок: Французский (Оригинал) [tfile.me]









реклама партнёра


Вернуться к началу
 Профиль Отправить личное сообщение  
 
   Похожие торренты   Автор   Торрент   Размер 
В этой теме нет новых непрочитанных сообщений. Особенный (Кирилл Злотник) [2006, мультфильм, приключения, DVDRip | Лицензия]

Nickolas3435

19 | 5

1.37 ГБ

В этой теме нет новых непрочитанных сообщений. Александр Великий / Alexander the Great [Мультфильм, 3D, приключения, история, 2006] DVDRip, Dub

salma3

34 | 6

1000.48 МБ

В этой теме нет новых непрочитанных сообщений. Конг: Возвращение в джунгли / Kong: Return To The Jungle [Мультфильм, приключения, семейный, 2006] DVDRip-AVC, Dub [Лицензия]

salma3

2 | 4

1.37 ГБ

В этой теме нет новых непрочитанных сообщений. Маленький Немо: Приключения в стране снов / Little Nemo: Adventures in Slumberland [Мультфильм, приключения, 1989] DVDRip, Avo

salma3

29 | 4

1.38 ГБ

В этой теме нет новых непрочитанных сообщений. Разрушение Трои и приключения Одиссея / Destruction of Troy and Adventures of Odysseus [мультфильм, приключения, исторический, 1998] DVDRip, Dub

salma3

13 | 3

1.46 ГБ

В этой теме нет новых непрочитанных сообщений. Любопытный Джордж / Curious George [мультфильм, комедия, приключения, 2006] WEB-DLRip, Dub+Sub

salma3

45 | 4

1.47 ГБ

В этой теме нет новых непрочитанных сообщений. Приключения мышонка Переса / El raton Perez / The Hairy Tooth Fair [мультфильм, комедия, семейный, 2006] HDRip, Mvo

salma3

15 | 3

1.46 ГБ


Начать новую тему Ответить на тему  [ 1 сообщение ] 




Для Мосгорсуда, Роскомнадзора и рекламодателей:: mosgorsud-torrent[собачка]yandex.ru