Торрент файл
скачать торрент магнет ссылка Добавлен: 30 ноя 2012, 01:07
Размер: 1.08 ГБ
Сидеров: 20
Личеров: 3
Статус: (salma3)
Автор

СообщениеДобавлено: 30 ноя 2012, 01:07 

Не в сети
Супермодератор
Аватара пользователя
Дата регистрации:
15 фев 2012, 16:44
Возраст: 28
Спасибо: 6594 / 2145
Сообщения: 44279
Пингвиненок Пайпер / Piper Penguin and his Fantastic Flying Machines

Год выхода: 2008
Жанр: мультфильм
Режиссер: Майкл Шелп
В ролях: Пит Зарустика, Кэтрин Крессида, Гарри Кейсон, Денис Финелли, Марк Жесснер


О фильме:
Пингвиненок Пайпер мечтает изобрести летательный аппарат, чтобы подняться к облакам и облететь на нем весь мир! А помогают ему в этом непростом деле его верные друзья. Вместе они не только добьются своей цели и смастерят фантастическую машину, но и защитят свою семью от врагов. Ведь дружба творит настоящие чудеса!



Страна: США
Продолжительность: 00:52:00
Перевод: профессиональный (многоголосый, закадровый)

Файл
Кодек: XviD, (AVI)
Качество: DVDRip
Видео: 720x400 (16:9), 25.000fps, MPEG-4 Visual (XviD), ~ 2174Kbps avg, 0.302bit/pixel
Аудио#1: (русский) 48.0KHz, AC3, 6 ch, ~ 384Kbps avg
Аудио#2: (русский) 48.0KHz, AC3, 2 ch, ~ 192Kbps avg
Аудио#3: (английский) 48.0KHz, AC3, 2 ch, ~ 192Kbps avg

Общее
Полное имя: D:\загрузка\Пингвиненок Пайпер [tfile.me]\Пингвиненок Пайпер [tfile.me].avi
Формат: AVI
Формат/Информация: Audio Video Interleave
Размер файла: 1,08 Гбайт
Продолжительность: 52 м.
Общий поток: 2962 Кбит/сек
Программа кодирования: VirtualDubMod 1.5.10.2 (build 2540/release)
Библиотека кодирования: VirtualDubMod build 2540/release
Видео
Идентификатор: 0
Формат: MPEG-4 Visual
Профиль формата: Advanced Simple@L5
Параметр BVOP формата: 1
Параметр QPel формата: Нет
Параметр GMC формата: Без точки перехода
Параметр матрицы формата: Default (H.263)
Идентификатор кодека: XVID
Идентификатор кодека/Подсказка: XviD
Продолжительность: 52 м.
Битрейт: 2174 Кбит/сек
Ширина: 720 пикселей
Высота: 400 пикселей
Соотношение сторон: 16:9
Частота кадров: 25,000 кадров/сек
Цветовое пространство: YUV
Субдискретизация насыщенности: 4:2:0
Битовая глубина: 8 бит
Тип развёртки: Прогрессивная
Метод сжатия: С потерями
Бит/(Пиксели*Кадры): 0.302
Размер потока: 809 Мбайт (73%)
Библиотека кодирования: XviD 1.2.0.dev47 (UTC 2006-11-01)
Аудио #1
Идентификатор: 1
Формат: AC-3
Формат/Информация: Audio Coding 3
Расширение режима: CM (complete main)
Идентификатор кодека: 2000
Продолжительность: 52 м.
Вид битрейта: Постоянный
Битрейт: 384 Кбит/сек
Каналы: 6 каналов
Расположение каналов: Front: L C R, Side: L R, LFE
Частота: 48,0 КГц
Битовая глубина: 16 бит
Метод сжатия: С потерями
Размер потока: 143 Мбайт (13%)
Выравнивание: Разделение по промежуткам
Продолжительность промежутка: 40мс. (1,00 видеокадр)
Время предзагрузки промежутка: 500мс.
Заголовок: русский 6 ch [tfile]
Аудио #2
Идентификатор: 2
Формат: AC-3
Формат/Информация: Audio Coding 3
Расширение режима: CM (complete main)
Идентификатор кодека: 2000
Продолжительность: 51 м.
Вид битрейта: Постоянный
Битрейт: 192 Кбит/сек
Каналы: 2 канала
Расположение каналов: Front: L R
Частота: 48,0 КГц
Битовая глубина: 16 бит
Метод сжатия: С потерями
Размер потока: 71,4 Мбайт (6%)
Выравнивание: Разделение по промежуткам
Продолжительность промежутка: 40мс. (1,00 видеокадр)
Время предзагрузки промежутка: 500мс.
Заголовок: русский 2 ch [tfile]
Аудио #3
Идентификатор: 3
Формат: AC-3
Формат/Информация: Audio Coding 3
Расширение режима: CM (complete main)
Идентификатор кодека: 2000
Продолжительность: 51 м.
Вид битрейта: Постоянный
Битрейт: 192 Кбит/сек
Каналы: 2 канала
Расположение каналов: Front: L R
Частота: 48,0 КГц
Битовая глубина: 16 бит
Метод сжатия: С потерями
Размер потока: 71,4 Мбайт (6%)
Выравнивание: Разделение по промежуткам
Продолжительность промежутка: 40мс. (1,00 видеокадр)
Время предзагрузки промежутка: 500мс.
Заголовок: английский 2 ch [tfile]




реклама партнёра


Вернуться к началу
 Профиль Отправить личное сообщение  
 
   Похожие торренты   Автор   Торрент   Размер 
В этой теме нет новых непрочитанных сообщений. Пингвиненок Пороро / Pororo the Little Penguin / 1-3 сезоны: 1-156 серии из 156 [мультфильм, детский, 2007] WEB-DLRip, Dub

salma3

71 | 43

13.64 ГБ

В этой теме нет новых непрочитанных сообщений. Пингвиненок Пороро / Pororo The Little Penguin [S04] [Мультсериал, детский, семейный, 2007] WEB-DLRip 720p, Dub

salma3

6 | 5

2.73 ГБ

В этой теме нет новых непрочитанных сообщений. Пингвиненок Пороро / Pororo The Little Penguin [S05] [Мультсериал, детский, семейный, 2007] WEB-DLRip 720p, Dub

salma3

5 | 4

3.38 ГБ

В этой теме нет новых непрочитанных сообщений. Пингвиненок Пороро / Pororo The Little Penguin [S03] [Мультсериал, детский, семейный, 2007] WEB-DLRip 720p, Dub

salma3

5 | 1

3.07 ГБ

В этой теме нет новых непрочитанных сообщений. Пингвиненок Пороро / Pororo The Little Penguin [S02] [Мультсериал, детский, семейный, 2007] WEB-DLRip 720p, Dub

salma3

5 | 1

3.07 ГБ

В этой теме нет новых непрочитанных сообщений. Пингвиненок Пороро / Pororo The Little Penguin [S01] [Мультсериал, детский, семейный, 2007] WEB-DLRip 720p, Dub

salma3

4 | 1

3.07 ГБ

В этой теме нет новых непрочитанных сообщений. Пингвиненок Пороро: Большие гонки / Pororo, the Racing Adventure (Юн Кун Пак) [мультфильм, 2013] HDRip, Dub [iTunes]

Dracon

2 | 0

1.44 ГБ


Начать новую тему Ответить на тему  [ 1 сообщение ] 




Для Мосгорсуда, Роскомнадзора и рекламодателей:: mosgorsud-torrent[собачка]yandex.ru