Торрент файл
скачать торрент магнет ссылка Добавлен: 29 ноя 2012, 21:08
Размер: 161.78 МБ
Сидеров: 356
Личеров: 11
Статус: (Aleksandr.ru)
Автор

СообщениеДобавлено: 29 ноя 2012, 21:08 

Не в сети
Супермодератор
Аватара пользователя
Дата регистрации:
22 май 2010, 12:40
Спасибо: 2027 / 98
Сообщения: 2963
Откуда: Н.Новгород
Страна: Россия
Жанр:мультфильм, короткометражка, комедия, семейный
Год выпуска: 2012
Продолжительность: ~ 7 минут на серию

Перевод: не требуется
Оригинальная аудиодорожка: русский
Cубтитры: нет

Режиссеры: Олег Кузовков, Олег Ужинов, Денис Червяцов, ...

Роли озвучивали: Алина Кукушкина, Борис Кутневич, Эдуард Назаров

Описание: Мультсериал про девочку Машу, которая никому не дает покоя, и в первую очередь — своему другу Медведю.





Исходник: DVD5 R5
Тип релиза: DVDRip
Контейнер: AVI

Видео: 720x400 (16:9), 25 fps, XviD ~ 1442 kbps avg, 0.200 bit/pixel
Аудио: 48 kHz, AC3, 2 ch, 192.00 kbps



2012год
28«Ход конем»= 00:06:53
29«Хит сезона»= 00:06:54


Общее
Полное имя: Masha.i.Medved'.2012.DVDRip.avi
Формат: AVI
Формат/Информация: Audio Video Interleave
Размер файла: 81,1 Мбайт
Продолжительность: 6 м. 53 с.
Общий поток: 1644 Кбит/сек
Программа кодирования: VirtualDubMod 1.5.10.3 | http://www.virtualdub-fr.org || (build 2550/release)
Библиотека кодирования: VirtualDubMod build 2550/release

Видео
Идентификатор: 0
Формат: MPEG-4 Visual
Профиль формата: Advanced Simple@L5
Параметр BVOP формата: 1
Параметр QPel формата: Нет
Параметр GMC формата: Без точки перехода
Параметр матрицы формата: Выборочная
Идентификатор кодека: XVID
Идентификатор кодека/Подсказка: XviD
Продолжительность: 6 м. 53 с.
Битрейт: 1442 Кбит/сек
Ширина: 720 пикселей
Высота: 400 пикселей
Соотношение сторон: 16:9
Частота кадров: 25,000 кадров/сек
Цветовое пространство: YUV
Субдискретизация насыщенности: 4:2:0
Битовая глубина: 8 бит
Тип развёртки: Прогрессивная
Метод сжатия: С потерями
Бит/(Пиксели*Кадры): 0.200
Размер потока: 71,1 Мбайт (88%)
Библиотека кодирования: XviD 65

Аудио
Идентификатор: 1
Формат: AC-3
Формат/Информация: Audio Coding 3
Расширение режима: CM (complete main)
Идентификатор кодека: 2000
Продолжительность: 6 м. 53 с.
Вид битрейта: Постоянный
Битрейт: 192 Кбит/сек
Каналы: 2 канала
Расположение каналов: Front: L R
Частота: 48,0 КГц
Битовая глубина: 16 бит
Метод сжатия: С потерями
Размер потока: 9,47 Мбайт (12%)
Выравнивание: Разделение по промежуткам
Продолжительность промежутка: 40мс. (1,00 видеокадр)
Время предзагрузки промежутка: 500мс.







реклама партнёра


Вернуться к началу
 Профиль Отправить личное сообщение  
 
   Похожие торренты   Автор   Торрент   Размер 
В этой теме нет новых непрочитанных сообщений. Маша и Медведь - Красота страшная сила [40] (мультфильм, семейный. 2014) WebRip

Aleksandr.ru

907 | 12

95.03 МБ

В этой теме нет новых непрочитанных сообщений. Маша и Медведь. Пещерный медведь [48] [Мультсериал, сказка, детский, семейный. 2014] WEBRip

Dracon

116 | 5

97.91 МБ

В этой теме нет новых непрочитанных сообщений. Маша и медведь [01-48 из 48] + Машины сказки [01-26 из 26] [Мультсериал, комедия, семейный, 2009-2014] DVD5 + 3xDVD9 [Лицензия]

Dracon

199 | 102

26.48 ГБ

В этой теме нет новых непрочитанных сообщений. Маша и Медведь. Раз в году [44] [Мультсериал, сказка, детский, семейный. 2014] WEB-DLRip

Dracon

29 | 3

107.25 МБ

В этой теме нет новых непрочитанных сообщений. Маша и медведь: Крик победы [47] [Мультсериал, сказка, детский, семейный. 2014] WEB-DLRip

Dracon

74 | 3

281.49 МБ

В этой теме нет новых непрочитанных сообщений. Маша и медведь: Game Over [59] ( Мультсериал, сказка, детский, семейный, 2016) WEB-DL 1080p от ExKinoRay

marya111

38 | 1

276.84 МБ

В этой теме нет новых непрочитанных сообщений. Маша и медведь: Героями не рождаются [43] [Мультсериал, сказка, детский, семейный. 2014] WEBRip

Dracon

2125 | 33

95.43 МБ


Начать новую тему Ответить на тему  [ 1 сообщение ] 




Для Мосгорсуда, Роскомнадзора и рекламодателей:: mosgorsud-torrent[собачка]yandex.ru