Торрент файл
скачать торрент магнет ссылка Добавлен: 23 ноя 2012, 20:33
Размер: 364.95 МБ
Сидеров: 0
Личеров: 3
Автор

СообщениеДобавлено: 23 ноя 2012, 20:33 

Не в сети
Зам. Админа
Аватара пользователя
Дата регистрации:
02 дек 2010, 12:39
Спасибо: 12461 / 214
Сообщения: 27968

Информация о фильме
Название: Симпсоны
Оригинальное название: The Simpsons
Год выхода: 2012
Жанр: Мультсериал, комедия, семейный
Режиссер: Марк Керклэнд, Джефф Линч, Сьюзи Диттер
В ролях: Дэн Кастелланета, Джули Кавнер, Нэнси Картрайт, Ярдли Смит, Гарри Ширер, Хэнк Азария, Памела Хейден, Тресс МакНилл, Карл Видерготт, Мэгги Росвэл

О фильме:
Мультфильм — пародия на американский уклад жизни. Cемейство Симпсонов состоит из пяти членов: папаша Гомер, мать семейства Мардж, их дочери Лиза и Мэгги и несносный подросток Барт.



Страна: США
Продолжительность: 00:21:22
Перевод: Любительский (многоголосый) - Nice-Media

Файл
Кодек: XviD
Качество: HDTVRip
Видео: 1280x720, 23.976 fps, 2246 Kbps
Звук: MP3, 2 ch, 44.1 KHz, 128 Kbps

General
Complete name: F:Загрузки µTorrentThe SimpsonsСезон 24 Серия 04 (Nice-Media).avi
Format: AVI
Format/Info: Audio Video Interleave
File size: 365 MiB
Duration: 21mn 23s
Overall bit rate: 2 386 Kbps
Writing application: MEncoder SVN-r29352(20090610-gcc4.3.3)
Writing library: MPlayer

Video
ID: 0
Format: MPEG-4 Visual
Format profile: Advanced Simple@L5
Format settings, BVOP: 2
Format settings, QPel: No
Format settings, GMC: No warppoints
Format settings, Matrix: Default (H.263)
Codec ID: XVID
Codec ID/Hint: XviD
Duration: 21mn 22s
Bit rate: 2 246 Kbps
Width: 1 280 pixels
Height: 720 pixels
Display aspect ratio: 16:9
Frame rate: 23.976 fps
Color space: YUV
Chroma subsampling: 4:2:0
Bit depth: 8 bits
Scan type: Progressive
Compression mode: Lossy
Bits/(Pixel*Frame): 0.102
Stream size: 344 MiB (94%)
Writing library: XviD 1.2.1 (UTC 2008-12-04)

Audio
ID: 1
Format: MPEG Audio
Format version: Version 1
Format profile: Layer 3
Mode: Joint stereo
Mode extension: MS Stereo
Codec ID: 55
Codec ID/Hint: MP3
Duration: 21mn 23s
Bit rate mode: Constant
Bit rate: 128 Kbps
Channel(s): 2 channels
Sampling rate: 44.1 KHz
Compression mode: Lossy
Delay relative to video: 42ms
Stream size: 19.6 MiB (5%)
Alignment: Aligned on interleaves
Interleave, duration: 26 ms (0.63 video frame)
Interleave, preload duration: 522 ms





реклама партнёра


Вернуться к началу
 Профиль  
 
   Похожие торренты   Автор   Торрент   Размер 
В этой теме нет новых непрочитанных сообщений. Симпсоны / The Simpsons [28x01 из 22] ( Комедия, сатира, 2016) HDTVRip 720p | OMSKBIRD

marya111

0 | 0

1.49 ГБ

В этой теме нет новых непрочитанных сообщений. Симпсоны / The Simpsons [28x01 из 22] (комедия, 2016) WEB-DL 720p | Jaskier

marya111

13 | 9

3.71 ГБ

В этой теме нет новых непрочитанных сообщений. Симпсоны / The Simpsons [28x01 из 22] ( комедия, 2016) WEB-DL 720p | Jaskier

marya111

0 | 0

781.45 МБ

В этой теме нет новых непрочитанных сообщений. Симпсоны / The Simpsons [28x01-04 из 22] (Комедия, сатира, 2016) WEB-DLRip | VO-production

marya111

0 | 0

1.23 ГБ

В этой теме нет новых непрочитанных сообщений. Симпсоны / The Simpsons [S25] [мультфильм, комедия, семейный, 2013-2014] WEB-DL 720p, Mvo

Dracon

54 | 154

14.19 ГБ

В этой теме нет новых непрочитанных сообщений. Симпсоны / The Simpsons [28х01-08 из 22] (2016) HDTV 720p | Jetvis Studio

marya111

60 | 60

3.37 ГБ

В этой теме нет новых непрочитанных сообщений. Симпсоны / The Simpsons [28x01-04 из 22] (Комедия, сатира, 2016) WEB-DLRip | VO-production

marya111

0 | 0

1004.75 МБ


Начать новую тему Ответить на тему  [ 1 сообщение ] 




Для Мосгорсуда, Роскомнадзора и рекламодателей:: mosgorsud-torrent[собачка]yandex.ru