Торрент файл
скачать торрент магнет ссылка Добавлен: 19 ноя 2012, 17:46
Размер: 8.4 ГБ
Сидеров: 6
Личеров: 2
Автор

СообщениеДобавлено: 19 ноя 2012, 17:46 

Не в сети
5 Звёзд
Аватара пользователя
Дата регистрации:
20 апр 2012, 10:59
Возраст: 35
Спасибо: 941 / 102
Сообщения: 1292
Откуда: Москва
Сорвиголова Кик Бутовски / Kick Buttowski: Suburban Daredevil
Страна: США
Жанр: боевик, комедия, мультсериал
Продолжительность: 00:21:07
Год выпуска: 2011-2012
Перевод: Профессиональный (дублированный) [Канал Disney]
Русские субтитры: нет



Роли озвучивали: Александр Коврижных, Александр Быков, Александр Новиков, Ольга Шорохова, Михаил Тихонов и другие



Описание: Кик Бутовски — очень необычный ребенок, живущий в самом обычном городе. Он — великий борец с обыденностью, который стремится сделать каждое мгновение своей жизни особенным. Твердо решив стать самым отчаянным каскадером в мире, Кик понимает, что ему необходимо преодолеть все жизненные обстоятельства на этом пути.



Список серий
2x01 - Стрижка денег / Любовь - это отстой! (Mow Money / Love Stinks!)
2x02 - Слишком чисто / Скоростная доставка (Clean ... to the Extreme / Stand and Delivery)
2x03 - Переключаюсь / Запрет На Гараж (Switching Gears / Garage Banned)
2x04 - Клёвые Гены / Покупка Одежды (Kickin' Genes / Clothes Call)
2x05 - В Бассейне / Сосед Уэйд (Pooldaze / Live in Wade)
2x06 - Продано! / Вниз лицом! (Sold! / Faceplant!)
2x07 - Правда или Сорвиголова ( Truth or Daredevil)
2x08 - Опять Загнан / Новое Лицо (Stumped Again / The Kick Stays in the Picture)
2x09 - Рука В Руке / Луиджи Вендетта (Hand in Hand / Luigi Vendetta)
2x10 - Кик Или Жизнь / Аттракцион Мертвеца (Kick or Treat / Dead Man's Roller Coaster)
2x11 - Гонки На Картах / К2 Кайл 2.0 (Kart to Kart / K2 Kyle 2.0)
2x12 - Одурачен Брэдом! / Ночёвка (You've Been BRAD'd! / Sleepover)
2x13 - Щеголь Из Спортзала / Наказанный (Gym Dandy / Detained)
2x14 - Комната Брэда / Друг, где мой Уэйд? (Brad's Room / Dude, Where's My Wade?)
2x15 - Соглашение С Сестрой / Тcc! (Sister Pact / Shh!)
2x16 - Собачья Жизнь / Братская Любовь (K-Nein / Bromance)
2x17 - Рождество с Кузеном Кайлом / Снежная Проблема (A Cousin Kyle Christmas / Snow Problem)
2x18 - Чердак / Свободу Гюнтеру (Attic-a / Free Gunther)
2x19 - Дикая Сонная Река / Жёсткая Игра (Sleepy River Wild / Power Play)
2x20 - Голосование / Лагерь Джока УайлдераНа Природе (Poll Position / Jock Wilder's Nature Camp)
2x21 - Блошиный Рынок / Крутописание (Swap Meet / Bee Awesome!)
2x22 - Сказание о Мусоре / Железные Нервы (Trash Talk / Nerves of Steal)
2x24 - Война и Мир (Bwar and Peace)
2x25 - Дурные Манеры За Столом / Окаменелый! (Bad Table Manners / Petrified!)
2x27 - Дневник Брэда / Цена Розыгрыша (Brad's Diary / Sew What)
2x31 - Кодекс Головорезов / Бвар-Март (Meathead Justice / Bwar-Mart)
2x32 - Кайл И. Койот / Запертый Снаружи / Победа (Kyle E. Coyote / Locked Out / Rocked)



Семпл: Скачать



Подробные технические данные
Kick Buttowski.2x02.WEB-DLRip.Rus.Eng.avi
Format : AVI
Format/Info : Audio Video Interleave
File size : 324 MiB
Duration : 22mn 7s
Overall bit rate : 2 048 Kbps
Writing application : VirtualDubModRus 1.5.10.2 (build 2542/release)
Writing library : VirtualDubMod build 2542/release
Video
ID : 0
Format : MPEG-4 Visual
Format profile : Advanced Simple@L5
Format settings, BVOP : 2
Format settings, QPel : No
Format settings, GMC : No warppoints
Format settings, Matrix : Default (H.263)
Codec ID : XVID
Codec ID/Hint : XviD
Duration : 22mn 7s
Bit rate : 1 649 Kbps
Width : 720 pixels
Height : 400 pixels
Display aspect ratio : 16:9
Frame rate : 23.976 fps
Color space : YUV
Chroma subsampling : 4:2:0
Bit depth : 8 bits
Scan type : Progressive
Compression mode : Lossy
Bits/(Pixel*Frame) : 0.239
Stream size : 261 MiB (81%)
Writing library : XviD 1.2.1 (UTC 2008-12-04)
Audio #1
ID : 1
Format : AC-3
Format/Info : Audio Coding 3
Mode extension : CM (complete main)
Codec ID : 2000
Duration : 22mn 7s
Bit rate mode : Constant
Bit rate : 192 Kbps
Channel(s) : 2 channels
Channel positions : Front: L R
Sampling rate : 48.0 KHz
Bit depth : 16 bits
Compression mode : Lossy
Stream size : 30.4 MiB (9%)
Alignment : Split accross interleaves
Interleave, duration : 42 ms (1.00 video frame)
Interleave, preload duration : 500 ms
Audio #2
ID : 2
Format : AC-3
Format/Info : Audio Coding 3
Mode extension : CM (complete main)
Codec ID : 2000
Duration : 22mn 7s
Bit rate mode : Constant
Bit rate : 192 Kbps
Channel(s) : 2 channels
Channel positions : Front: L R
Sampling rate : 48.0 KHz
Bit depth : 16 bits
Compression mode : Lossy
Stream size : 30.4 MiB (9%)
Alignment : Split accross interleaves
Interleave, duration : 42 ms (1.00 video frame)
Interleave, preload duration : 500 ms
Скриншоты

Качество: WEB-DLRip
Формат: AVI
Видео: 720x400 (1.80:1), 23.976 fps, XviD build 50 ~1648 kbps avg, 0.24 bit/pixel
Аудио:
    русская дорожка: 48 kHz, AC3 Dolby Digital, 2/0 (L,R) ch, ~192 kbps
  • оригинал: 48 kHz, AC3 Dolby Digital, 2/0 (L,R) ch, ~192 kbps
Субтитры: отсутствуют






реклама партнёра


Вернуться к началу
 Профиль Отправить личное сообщение  
 
   Похожие торренты   Автор   Торрент   Размер 
В этой теме нет новых непрочитанных сообщений. Сорвиголова / Daredevil / 2 сезон 1-13 серии из 13 [фантастика, боевик, 2015] WEBRip, Mvo [Baibako]

salma3

742 | 729

9.38 ГБ

В этой теме нет новых непрочитанных сообщений. Совершенный Человек-Паук / Ultimate Spider-Man (Сезон 1-2, серии 1-52 из 52) (Тим Элдред, Алекс Сото) [2012-2013, Мультсериал, фантастика, боевик, комедия, WEBDLRip-AVC 720р] [DD5.1] [Dub]

Враг Нароода

4 | 5

28.23 ГБ

В этой теме нет новых непрочитанных сообщений. Совершенный Человек-Паук / Ultimate Spider-Man (Сезон 1-3, серии 1-68 из 78) (Тим Элдред, Алекс Сото) [2012-2014, Мультсериал, фантастика, боевик, комедия, WEBDLRip-AVC 720р] [DD5.1] [Dub]

Враг Нароода

56 | 224

36.64 ГБ

В этой теме нет новых непрочитанных сообщений. Тайны острова Мако / Mako Mermaids / 1 сезон 1-26 серии из 26 [фэнтези, комедия, приключения, 2013] WEB-DLRip, Dub [Disney]

salma3

50 | 34

8.61 ГБ

В этой теме нет новых непрочитанных сообщений. Совершенный Человек-Паук / Ultimate Spider-Man (Сезон 1-3, серии 1-61 из 78) (Тим Элдред, Алекс Сото) [2012-2014, Мультсериал, фантастика, боевик, комедия, HDTVRip, WEBDLRip-AVC 720р] [DD5.1] [Dub]

Враг Нароода

26 | 75

32.94 ГБ

В этой теме нет новых непрочитанных сообщений. Погоня за красотой / Bad Hair Day (Эрик Кануэль) [Комедия, Приключения, 2015] WEB-DLRip, Dub [Канал Disney]

Dracon

38 | 1

1.37 ГБ

В этой теме нет новых непрочитанных сообщений. Гриффины (14 сезон: 1-20 серии из 20) / Family Guy [2015, Мультсериал, Комедия, Пародия, WEB-DLRip, Профессиональный (многоголосый, закадровый) - Jaskier]

marya111

54 | 44

5.72 ГБ


Начать новую тему Ответить на тему  [ 1 сообщение ] 




Для Мосгорсуда, Роскомнадзора и рекламодателей:: mosgorsud-torrent[собачка]yandex.ru