Торрент файл
скачать торрент магнет ссылка Добавлен: 13 ноя 2012, 16:16
Размер: 4.04 ГБ
Сидеров: 15
Личеров: 3
Статус: (Dracon)
Автор

СообщениеДобавлено: 13 ноя 2012, 16:16 

Не в сети
Зам. Админа
Аватара пользователя
Дата регистрации:
02 дек 2010, 12:39
Спасибо: 12623 / 214
Сообщения: 28012

Год выхода: 2011
Жанр: Мультфильм, драма, комедия, семейный
Режиссер: Сара Смит
В ролях: Джеймс МакЭвой, Хью Лори, Билл Найи, Джим Броудбент, Имелда Стонтон, Эшли Дженсен, Марк Вуттон, Лора Линни, Ева Лонгория, Рамона Маркес

О фильме:
Фильм приоткрывает завесу тайны над тем, каким образом Санта-Клаусу удается развезти подарки всем детям на Земле всего за одну ночь.



Страна: Великобритания, США
Студия: Aardman Animations, Sony Pictures Animation
Продолжительность: 01:37:32
Перевод: Дублированный [Лицензия]

Кодек: AVC
Качество: BDRip 720p
Видео: 1280x694, 23.976 fps,3891 Kbps
Аудио 1: AC3, 48 kHz, 6 ch, 640 Kbps [Russian, Дубляж, Blu-ray CEE]
Аудио 2: AC3, 48 kHz, 6 ch, 640 Kbps [Ukrainian, Дубляж, Blu-ray CEE]
Аудио 3: AC3, 48 kHz, 6 ch, 640 Kbps [English]
Субтитры: Russian, English
Дополнительно: Сохранены оригинальные чаптеры как на Blu-Ray.

General
Complete name: F:Секретная служба Санта-Клауса.2011.720p.BluRay.Rus.Ukr.Eng.HDCLUB.mkv
Format: Matroska
File size: 4.04 GiB
Duration: 1h 37mn
Overall bit rate: 5 929 Kbps
Movie name: Arthur Christmas (2011) - Release for HDCLUB
Encoded date: UTC 2012-11-11 19:13:48
Writing application: mkvmerge v3.4.0 ('Rapunzel') built on May 15 2010 09:38:20
Writing library: libebml v0.8.0 + libmatroska v0.9.0

Video
ID: 1
Format: AVC
Format/Info: Advanced Video Codec
Format profile: High@L4.1
Format settings, CABAC: Yes
Format settings, ReFrames: 9 frames
Format settings, GOP: M=2, N=32
Muxing mode: Container profile=Unknown@4.1
Codec ID: V_MPEG4/ISO/AVC
Duration: 1h 37mn
Bit rate: 3 891 Kbps
Width: 1 280 pixels
Height: 694 pixels
Display aspect ratio: 16:9
Frame rate: 23.976 fps
Color space: YUV
Chroma subsampling: 4:2:0
Bit depth: 8 bits
Scan type: Progressive
Bits/(Pixel*Frame): 0.183
Stream size: 2.65 GiB (66%)
Title: Release for HDCLUB
Writing library: x264 core 116 r2057 0ba8a9c
Encoding settings: cabac=1 / ref=9 / deblock=1:-3:-3 / analyse=0x3:0x133 / me=umh / subme=10 / psy=1 / psy_rd=1.00:0.00 / mixed_ref=1 / me_range=32 / chroma_me=1 / trellis=2 / 8x8dct=1 / cqm=0 / deadzone=21,11 / fast_pskip=0 / chroma_qp_offset=-2 / threads=18 / sliced_threads=0 / nr=0 / decimate=0 / interlaced=0 / bluray_compat=0 / constrained_intra=0 / bframes=7 / b_pyramid=2 / b_adapt=2 / b_bias=0 / direct=3 / weightb=1 / open_gop=0 / weightp=2 / keyint=250 / keyint_min=23 / scenecut=40 / intra_refresh=0 / rc_lookahead=40 / rc=crf / mbtree=0 / crf=16.9 / qcomp=0.65 / qpmin=0 / qpmax=40 / qpstep=4 / vbv_maxrate=50000 / vbv_bufsize=50000 / crf_max=0.0 / nal_hrd=none / ip_ratio=1.25 / pb_ratio=1.25 / aq=1:0.60
Language: English

Audio #1
ID: 2
Format: AC-3
Format/Info: Audio Coding 3
Mode extension: CM (complete main)
Codec ID: A_AC3
Duration: 1h 37mn
Bit rate mode: Constant
Bit rate: 640 Kbps
Channel(s): 6 channels
Channel positions: Front: L C R, Side: L R, LFE
Sampling rate: 48.0 KHz
Stream size: 447 MiB (11%)
Title: AC3 5.1 @ 640 kbps - Дублированный, Blu-ray
Language: Russian

Audio #2
ID: 3
Format: AC-3
Format/Info: Audio Coding 3
Mode extension: CM (complete main)
Codec ID: A_AC3
Duration: 1h 37mn
Bit rate mode: Constant
Bit rate: 640 Kbps
Channel(s): 6 channels
Channel positions: Front: L C R, Side: L R, LFE
Sampling rate: 48.0 KHz
Stream size: 447 MiB (11%)
Title: AC3 5.1 @ 640 kbps - Дублированный, Blu-ray
Language: Ukrainian

Audio #3
ID: 4
Format: AC-3
Format/Info: Audio Coding 3
Mode extension: CM (complete main)
Codec ID: A_AC3
Duration: 1h 37mn
Bit rate mode: Constant
Bit rate: 640 Kbps
Channel(s): 6 channels
Channel positions: Front: L C R, Side: L R, LFE
Sampling rate: 48.0 KHz
Stream size: 447 MiB (11%)
Title: AC3 5.1 @ 640 kbps
Language: English

Text #1
ID: 5
Format: UTF-8
Codec ID: S_TEXT/UTF8
Codec ID/Info: UTF-8 Plain Text
Language: Russian

Text #2
ID: 6
Format: UTF-8
Codec ID: S_TEXT/UTF8
Codec ID/Info: UTF-8 Plain Text
Language: English

Text #3
ID: 7
Format: UTF-8
Codec ID: S_TEXT/UTF8
Codec ID/Info: UTF-8 Plain Text
Language: English

Menu
00:00:00.000: en:00:00:00.000
00:04:37.777: en:00:04:37.777
00:08:52.615: en:00:08:52.615
00:16:27.153: en:00:16:27.153
00:19:48.729: en:00:19:48.729
00:23:23.819: en:00:23:23.819
00:28:59.321: en:00:28:59.321
00:33:28.924: en:00:33:28.924
00:39:22.277: en:00:39:22.277
00:44:45.558: en:00:44:45.558
00:52:49.375: en:00:52:49.375
00:58:48.942: en:00:58:48.942
01:06:00.290: en:01:06:00.290
01:13:49.342: en:01:13:49.342
01:20:36.957: en:01:20:36.957
01:29:48.174: en:01:29:48.174


Релиз от:




реклама партнёра


Вернуться к началу
 Профиль  
 
   Похожие торренты   Автор   Торрент   Размер 
В этой теме нет новых непрочитанных сообщений. Kingsman: Секретная служба / Kingsman: The Secret Service (Мэттью Вон) [боевик, комедия, криминал, приключения, 2014] BDRip 720p, Dub+Sub [Лицензия]

Dracon

1 | 2

7.92 ГБ

В этой теме нет новых непрочитанных сообщений. Kingsman: Секретная служба / Kingsman: The Secret Service (Мэттью Вон) [боевик, комедия, криминал, приключения, 2014] BDRip 1080p, Dub+Sub [Лицензия]

Dracon

2 | 1

14.5 ГБ

В этой теме нет новых непрочитанных сообщений. Я видел, как мама целовала Санта Клауса / I Saw Mommy Kissing Santa Claus [семейный, комедия, 2002] DVDRip-AVC, Mvo

salma3

37 | 11

1.36 ГБ

В этой теме нет новых непрочитанных сообщений. Kingsman: Секретная служба / Kingsman: The Secret Service (Мэттью Вон) [боевик, комедия, криминал, приключения, 2014] BDRip 720p, Dub [iTunes]

Dracon

103 | 66

6.15 ГБ

В этой теме нет новых непрочитанных сообщений. Рождество Чарли Брауна / A Charlie Brown Christmas [мультфильм, комедия, семейный, короткометражка, 1965] BDRip 720p, Mvo

salma3

28 | 11

2.32 ГБ

В этой теме нет новых непрочитанных сообщений. Kingsman: Секретная служба / Kingsman: The Secret Service (Мэттью Вон) [боевик, комедия, криминал, приключения, 2014] HDRip, Dub [Лицензия]

Dracon

17 | 0

1.46 ГБ

В этой теме нет новых непрочитанных сообщений. Kingsman: Секретная служба / Kingsman: The Secret Service (Мэттью Вон) [боевик, комедия, криминал, приключения, 2014] Blu-Ray 1080p, Dub+Sub [Лицензия]

Dracon

70 | 22

44.75 ГБ


Начать новую тему Ответить на тему  [ 1 сообщение ] 




Для Мосгорсуда, Роскомнадзора и рекламодателей:: mosgorsud-torrent[собачка]yandex.ru