Торрент файл
скачать торрент магнет ссылка Добавлен: 08 ноя 2012, 21:24
Размер: 2.37 ГБ
Сидеров: 31
Личеров: 6
Автор

СообщениеДобавлено: 08 ноя 2012, 21:24 

Не в сети
Зам. Админа
Аватара пользователя
Дата регистрации:
02 дек 2010, 12:39
Спасибо: 12461 / 214
Сообщения: 27968
Страна: США
Жанр:Комедия, Мультипликация
Продолжительность: 00:21:00
Год выпуска: 2012
Перевод: одноголосый закадровый [L0cDoG]
Русские субтитры: нет
Режиссёр: Трей Паркер, Мэтт Стоун
Роли озвучивали: Мэтт Стоун, Трей Паркер, Мэри Бергман, Элиза Шнайдер, Мона Маршалл, Эйприл Стюарт, Джон Хэнсен, Дженнифер Хоуэлл, Эдриен Бирд
Описание: «Южный парк» (англ. South Park) — американский мультсериал, созданный Мэттом Стоуном и Треем Паркером. Иногда название переводится также как «Саут-Парк» или «Саус-Парк». Выпускается кабельным телеканалом Comedy Central с 1997 года. Основу сюжета составляют приключения четырёх мальчиков и их друзей, живущих в маленьком городке Саут-Парк, штат Колорадо. Сериал высмеивает недостатки американской культуры и текущие мировые события, а также подвергает критике множество глубоких убеждений и табу посредством пародии и чёрного юмора. «Южный парк» выходит поздно вечером и позиционируется как мультфильм для взрослых.
Качество: HDTVRip
Формат: AVI
Видео: DivX Codec 5, 720x400, 23.976 fps, 581 kbps
Аудио 1: MP3, 44.100 kHz, 2 ch, 128.00 kbps [Russian]
Аудио 2: MP3, 44.100 kHz, 2 ch, 128.00 kbps [English]
Субтитры: отсутствуют
Релиз:
General
Complete name : E:Шара!!С торрента16 Season (Nice-Media)South.Park.S16E01.HDTVRip.rus.eng.Nice-Media.ru.avi
Format : AVI
Format/Info : Audio Video Interleave
File size : 135 MiB
Duration : 22mn 5s
Overall bit rate : 852 Kbps
Writing application : VirtualDubMod 1.5.10.2 (build 2540/release)
Writing library : VirtualDubMod build 2540/release

Video
ID : 0
Format : MPEG-4 Visual
Format profile : Advanced Simple@L5
Format settings, BVOP : 2
Format settings, QPel : No
Format settings, GMC : No warppoints
Format settings, Matrix : Default (H.263)
Codec ID : XVID
Codec ID/Hint : XviD
Duration : 22mn 5s
Bit rate : 582 Kbps
Width : 720 pixels
Height : 400 pixels
Display aspect ratio : 16:9
Frame rate : 23.976 fps
Color space : YUV
Chroma subsampling : 4:2:0
Bit depth : 8 bits
Scan type : Progressive
Compression mode : Lossy
Bits/(Pixel*Frame) : 0.084
Stream size : 92.0 MiB (68%)
Writing library : XviD 1.2.1 (UTC 2008-12-04)

Audio #1
ID : 1
Format : MPEG Audio
Format version : Version 1
Format profile : Layer 3
Mode : Joint stereo
Codec ID : 55
Codec ID/Hint : MP3
Duration : 22mn 5s
Bit rate mode : Constant
Bit rate : 128 Kbps
Channel(s) : 2 channels
Sampling rate : 44.1 KHz
Compression mode : Lossy
Stream size : 20.2 MiB (15%)
Alignment : Split accross interleaves
Interleave, duration : 42 ms (1.00 video frame)
Interleave, preload duration : 500 ms

Audio #2
ID : 2
Format : MPEG Audio
Format version : Version 1
Format profile : Layer 3
Mode : Joint stereo
Codec ID : 55
Codec ID/Hint : MP3
Duration : 22mn 5s
Bit rate mode : Constant
Bit rate : 128 Kbps
Channel(s) : 2 channels
Sampling rate : 44.1 KHz
Compression mode : Lossy
Stream size : 20.2 MiB (15%)
Alignment : Split accross interleaves
Interleave, duration : 42 ms (1.00 video frame)
Interleave, preload duration : 500 ms

01. Перевернутая наездница/ Reverse Cowgirl
02. Деньги в обмен на золото/ Cash For Gold
03. ФейсХиллинг/ Faith Hilling
04. Жидокабра/ Jewpacabra
05. Баттерсбол/ Butterballs
06. Лучше бы я никогда не ездил на канатную дорогу/ I Should Have Never Gone Ziplining
07. Картман находит любовь/ Cartman Finds Love
08. Сакразмбол/ Sarcastaball
09. Поднять планку/ Raising The Bar
10. Внебезопасность/ Insecurity
11. Голос предков / Going Native
12. Кошмар на лицо / A Nightmare on Facetime
13. A Scause For Applause / Браслет для аплодисментов
14. Obama Wins! / Обама победил!




реклама партнёра


Вернуться к началу
 Профиль  
 
   Похожие торренты   Автор   Торрент   Размер 
В этой теме нет новых непрочитанных сообщений. Южный Парк / South Park [Season 18, Episode 1-10 из 10] [Комедия, Мультипликация, 2014] HDTVRip, HDTVRip 720p, Avo

Dracon

10 | 16

2.27 ГБ

В этой теме нет новых непрочитанных сообщений. Южный Парк / South Park [19x01-10 из 10] (Трей Паркер, Мэтт Стоун, Эрик Сточ) [Комедия, Мультипликация, 2015] HDTVRip 720p [L0cDoG]

Dracon

129 | 279

4.1 ГБ

В этой теме нет новых непрочитанных сообщений. Южный парк / South Park [20x01-04 из 10] (Мультсериал, комедия, 2016) HDTVRip | IdeaFilm

marya111

0 | 0

1.16 ГБ

В этой теме нет новых непрочитанных сообщений. Южный парк / South Park [20x01-07 из 10] ( Мультсериал, комедия, 2016) HDTVRip | IdeaFilm

marya111

47 | 42

2.01 ГБ

В этой теме нет новых непрочитанных сообщений. Южный парк / South Park [20x01-05 из 10] (Мультсериал, комедия, 2016) HDTVRip | IdeaFilm

marya111

0 | 0

1.45 ГБ

В этой теме нет новых непрочитанных сообщений. Южный парк / South Park [20x01-03 из 10] (Мультсериал, комедия, 2016) HDTV 720p | IdeaFilm

marya111

26 | 21

1.97 ГБ

В этой теме нет новых непрочитанных сообщений. Южный парк / South Park [20x01-06 из 10] (Мультсериал, комедия, 2016) HDTV 720p | IdeaFilm

marya111

0 | 0

4 ГБ


Начать новую тему Ответить на тему  [ 1 сообщение ] 




Для Мосгорсуда, Роскомнадзора и рекламодателей:: mosgorsud-torrent[собачка]yandex.ru