Торрент файл
скачать торрент магнет ссылка Добавлен: 06 ноя 2012, 19:54
Размер: 1.05 ГБ
Сидеров: 117
Личеров: 7
Статус: (Dracon)
Автор

СообщениеДобавлено: 06 ноя 2012, 19:54 

Не в сети
Зам. Админа
Аватара пользователя
Дата регистрации:
02 дек 2010, 12:39
Спасибо: 12633 / 214
Сообщения: 28010

Год выхода: 2012
Жанр: мультфильм, семейный
Режиссер: Майк Феттерли
В ролях: Хэнк Бэнкс, Кэм Кларк, Эндрю Дункан, Эрин Фицджералд, Ди Ди Грин, Кейт Хиггинс, Джули Маддалена, Оду Паден, Синди Робинсон, Салли Саффиоти, Стив Стейли, Америка Юнг

О фильме:
Френки и её друзья, решают устроить крутую вечеринку на Хеллуин, хотя это сторого запрещено! Но на то они монстры, чтоб нарушать любые правила и доказать всем, что это нормально быть самим собой. Быть уникальным. Быть монстром!



Официальный сайт

Страна: США
Продолжительность: 01:11:19
Перевод: Любительский (двухголосый закадровый)

Кодек: XviD (AVI)
Качество: HDRip
Видео: 720x400 (1.80:1), 23.976 fps, XviD build 50 ~1846 kbps avg, 0.27 bit/pixel
Звук: 44.1 kHz, AC3 Dolby Digital, 2/0 (L,R) ch, ~256 kbps
Субтитры: отсутствуют



General
Complete name: Monster.high.ghouls.rule.2012.avi
Format: AVI
Format/Info: Audio Video Interleave
Format profile: OpenDML
File size: 1.05 GiB
Duration: 1h 11mn
Overall bit rate: 2 109 Kbps
Writing application: Lavf52.93.0

Video
ID: 0
Format: MPEG-4 Visual
Format profile: Advanced Simple@L5
Format settings, BVOP: 2
Format settings, QPel: No
Format settings, GMC: No warppoints
Format settings, Matrix: Default (MPEG)
Codec ID: XVID
Codec ID/Hint: XviD
Duration: 1h 11mn
Bit rate: 1 840 Kbps
Width: 720 pixels
Height: 400 pixels
Display aspect ratio: 16:9
Frame rate: 23.976 fps
Color space: YUV
Chroma subsampling: 4:2:0
Bit depth: 8 bits
Scan type: Progressive
Compression mode: Lossy
Bits/(Pixel*Frame): 0.266
Stream size: 939 MiB (87%)
Writing library: XviD 1.2.1 (UTC 2008-12-04)

Audio
ID: 1
Format: AC-3
Format/Info: Audio Coding 3
Mode extension: CM (complete main)
Codec ID: 2000
Duration: 1h 11mn
Bit rate mode: Constant
Bit rate: 256 Kbps
Channel(s): 2 channels
Channel positions: Front: L R
Sampling rate: 44.1 KHz
Bit depth: 16 bits
Compression mode: Lossy
Stream size: 131 MiB (12%)
Alignment: Aligned on interleaves
Interleave, duration: 35 ms (0.84 video frame)







реклама партнёра


Вернуться к началу
 Профиль  
 
   Похожие торренты   Автор   Торрент   Размер 
В этой теме нет новых непрочитанных сообщений. Клуб монстров / The Monster Club [ужасы, комедия, 1981] BDRip 1080p, Avo

salma3

28 | 12

7.35 ГБ

В этой теме нет новых непрочитанных сообщений. Заячья школа / Rabbit school [Мультфильм, семейный, 2017] WEB-DL 1080p, Dub [iTunes]

salma3

258 | 24

2.79 ГБ

В этой теме нет новых непрочитанных сообщений. Заячья школа / Rabbit school [Мультфильм, семейный, 2017] WEB-DLRip, Dub [iTunes]

salma3

553 | 94

1.37 ГБ

В этой теме нет новых непрочитанных сообщений. Безграничный Бэтмен: Хаос / Batman Unlimited: Monster Mayhem (Батч Лукич) [Мультфильм, боевик, приключения, 2015] HDRip, Mvo [iTunes]

Dracon

2 | 1

1.37 ГБ

В этой теме нет новых непрочитанных сообщений. Школа Юрского периода / Jurassic School [фэнтези, драма, комедия, семейный, 2017] HDRip, Mvo

salma3

309 | 103

1.37 ГБ

В этой теме нет новых непрочитанных сообщений. Школа девственниц / Virgin High [комедия, 1991] WEB-Rip, Avo

salma3

165 | 47

1.4 ГБ

В этой теме нет новых непрочитанных сообщений. Школа Авалон / Avalon High [фэнтези, 2010] HDTVRip 720p, Mvo

salma3

71 | 27

9.48 ГБ


Начать новую тему Ответить на тему  [ 1 сообщение ] 




Для Мосгорсуда, Роскомнадзора и рекламодателей:: mosgorsud-torrent[собачка]yandex.ru