Торрент файл
скачать торрент магнет ссылка Добавлен: 06 ноя 2012, 19:54
Размер: 1.05 ГБ
Сидеров: 117
Личеров: 7
Статус: (Dracon)
Автор

СообщениеДобавлено: 06 ноя 2012, 19:54 

Не в сети
Зам. Админа
Аватара пользователя
Дата регистрации:
02 дек 2010, 12:39
Спасибо: 12461 / 214
Сообщения: 27968

Год выхода: 2012
Жанр: мультфильм, семейный
Режиссер: Майк Феттерли
В ролях: Хэнк Бэнкс, Кэм Кларк, Эндрю Дункан, Эрин Фицджералд, Ди Ди Грин, Кейт Хиггинс, Джули Маддалена, Оду Паден, Синди Робинсон, Салли Саффиоти, Стив Стейли, Америка Юнг

О фильме:
Френки и её друзья, решают устроить крутую вечеринку на Хеллуин, хотя это сторого запрещено! Но на то они монстры, чтоб нарушать любые правила и доказать всем, что это нормально быть самим собой. Быть уникальным. Быть монстром!



Официальный сайт

Страна: США
Продолжительность: 01:11:19
Перевод: Любительский (двухголосый закадровый)

Кодек: XviD (AVI)
Качество: HDRip
Видео: 720x400 (1.80:1), 23.976 fps, XviD build 50 ~1846 kbps avg, 0.27 bit/pixel
Звук: 44.1 kHz, AC3 Dolby Digital, 2/0 (L,R) ch, ~256 kbps
Субтитры: отсутствуют



General
Complete name: Monster.high.ghouls.rule.2012.avi
Format: AVI
Format/Info: Audio Video Interleave
Format profile: OpenDML
File size: 1.05 GiB
Duration: 1h 11mn
Overall bit rate: 2 109 Kbps
Writing application: Lavf52.93.0

Video
ID: 0
Format: MPEG-4 Visual
Format profile: Advanced Simple@L5
Format settings, BVOP: 2
Format settings, QPel: No
Format settings, GMC: No warppoints
Format settings, Matrix: Default (MPEG)
Codec ID: XVID
Codec ID/Hint: XviD
Duration: 1h 11mn
Bit rate: 1 840 Kbps
Width: 720 pixels
Height: 400 pixels
Display aspect ratio: 16:9
Frame rate: 23.976 fps
Color space: YUV
Chroma subsampling: 4:2:0
Bit depth: 8 bits
Scan type: Progressive
Compression mode: Lossy
Bits/(Pixel*Frame): 0.266
Stream size: 939 MiB (87%)
Writing library: XviD 1.2.1 (UTC 2008-12-04)

Audio
ID: 1
Format: AC-3
Format/Info: Audio Coding 3
Mode extension: CM (complete main)
Codec ID: 2000
Duration: 1h 11mn
Bit rate mode: Constant
Bit rate: 256 Kbps
Channel(s): 2 channels
Channel positions: Front: L R
Sampling rate: 44.1 KHz
Bit depth: 16 bits
Compression mode: Lossy
Stream size: 131 MiB (12%)
Alignment: Aligned on interleaves
Interleave, duration: 35 ms (0.84 video frame)







реклама партнёра


Вернуться к началу
 Профиль  
 
   Похожие торренты   Автор   Торрент   Размер 
В этой теме нет новых непрочитанных сообщений. Школа монстров: Страх! Камера! Мотор! / Monster High: Frights, Camera, Action! [мультфильм, 2014] HDRip, Dub

Dracon

798 | 28

1.37 ГБ

В этой теме нет новых непрочитанных сообщений. Бал монстров / Monster's Ball [Драма, мелодрама, 2001] BDRip 1080p, Mvo+Sub

salma3

14 | 4

10.22 ГБ

В этой теме нет новых непрочитанных сообщений. Бал монстров / Monster's Ball [Драма, мелодрама, 2001] BDRip 720p, Mvo+Sub

salma3

43 | 4

4.87 ГБ

В этой теме нет новых непрочитанных сообщений. Клуб монстров / The Monster Club [ужасы, комедия, 1981] BDRip 1080p, Avo

salma3

28 | 12

7.35 ГБ

В этой теме нет новых непрочитанных сообщений. Семейка монстров /  The Boxtroll [мультфильм, фэнтези, комедия, приключения, семейный, 2014] WEB-DL 720p, Dub [iTunes]

Dracon

2 | 2

2.98 ГБ

В этой теме нет новых непрочитанных сообщений. Семейка монстров / The Boxtrolls [мультфильм, фэнтези, комедия, приключения, семейный, 2014] WEB-DLRip, Dub [iTunes]

Dracon

23 | 3

1.37 ГБ

В этой теме нет новых непрочитанных сообщений. Семейка монстров / The Boxtroll [мультфильм, фэнтези, комедия, приключения, семейный, 2014] WEB-DL 1080p, Dub [iTunes]

Dracon

16 | 2

3.71 ГБ


Начать новую тему Ответить на тему  [ 1 сообщение ] 




Для Мосгорсуда, Роскомнадзора и рекламодателей:: mosgorsud-torrent[собачка]yandex.ru