Торрент файл
скачать торрент магнет ссылка Добавлен: 03 ноя 2012, 08:52
Размер: 2.54 ГБ
Сидеров: 78
Личеров: 12
Статус: (Aleksandr.ru)
Автор

СообщениеДобавлено: 03 ноя 2012, 08:52 

Не в сети
Супермодератор
Аватара пользователя
Дата регистрации:
22 май 2010, 12:40
Спасибо: 2027 / 98
Сообщения: 2963
Откуда: Н.Новгород

Информация о фильме
Название: Том и Джерри: Робин Гуд и Мышь-Весельчак
Оригинальное название: Tom and Jerry: Robin Hood and His Merry Mouse
Год выхода: 2012
Жанр: Мультфильм, семейный
Режиссер: Спайк Брандт, Тони Червоне
В ролях: Роб Полсен, Тодд Стэшвик, Лорейн Ньюмен

О фильме:
Он грабил богатых, раздавал награбленное бедным, а теперь ему отчаянно нужна помощь Тома и Джерри! Знаменитый разбойник Робин Гуд попал в лапы злого шерифа Ноттингемского, а возлюбленной Робина, деве Мэриан, грозит серьезная опасность со стороны алчного принца Джона. Сумеют ли заклятые враги Том и Джерри на время забыть о своей вражде, чтобы спасти положение? В новом полнометражном мультипликационном фильме любимая многими средневековая сказка обрела новое прочтение. Динамичный сюжет, опасные трюки, залихватские песни, и, конечно, всеобщие любимцы, воитель Томас и маленький разбойник Джерри. Один за всех и все за одного в самой бесшабашной и удивительной истории из всех, что когда-либо происходили в Шервудском лесу.



Страна: США
Студия: Warner Home Video
Продолжительность: 00:57:40
Перевод: Дублированный [Лицензия]

Файл
Кодек: AVC
Качество: BDRip 1080p
Видео: 1920х1080, 23.976 fps, 4481 Kbps
Аудио 1: AC3, 48 KHz, 2 ch, 192 Kbps [Russian]
Аудио 2: DTS, 48 KHz, 6 ch, 1510 Kbps [English]
Субтитры: English, German

Семпл

General
Unique ID: 251936028795127725263385179701262877924 (0xBD891D3BBAD2F87AB65700BC8E5304E4)
Complete name: F:Загрузки µTorrentTom.and.Jerry.Robin.Hood.and.His.Merry.Mouse.2012.1080p.Blu-ray.x264.Rus.Eng.mkv
Format: Matroska
Format version: Version 2
File size: 2.54 GiB
Duration: 57mn 40s
Overall bit rate: 6 309 Kbps
Movie name: HDT
Encoded date: UTC 2012-11-02 16:54:48
Writing application: mkvmerge v4.3.0 ('Escape from the Island') built on Sep5 2010 10:30:51
Writing library: libebml v1.0.0 + libmatroska v1.0.0

Video
ID: 1
Format: AVC
Format/Info: Advanced Video Codec
Format profile: High@L4.1
Format settings, CABAC: Yes
Format settings, ReFrames: 4 frames
Muxing mode: Header stripping
Codec ID: V_MPEG4/ISO/AVC
Duration: 57mn 40s
Bit rate: 4 481 Kbps
Width: 1 920 pixels
Height: 1 080 pixels
Display aspect ratio: 16:9
Frame rate: 23.976 fps
Color space: YUV
Chroma subsampling: 4:2:0
Bit depth: 8 bits
Scan type: Progressive
Bits/(Pixel*Frame): 0.090
Stream size: 1.81 GiB (71%)
Writing library: x264 core 128 r2216 198a7ea
Encoding settings: cabac=1 / ref=4 / deblock=1:-1:-1 / analyse=0x3:0x133 / me=umh / subme=7 / psy=1 / psy_rd=1.00:0.15 / mixed_ref=1 / me_range=16 / chroma_me=1 / trellis=1 / 8x8dct=1 / cqm=0 / deadzone=21,11 / fast_pskip=0 / chroma_qp_offset=-3 / threads=9 / lookahead_threads=1 / sliced_threads=0 / nr=0 / decimate=1 / interlaced=0 / bluray_compat=0 / constrained_intra=0 / bframes=3 / b_pyramid=2 / b_adapt=1 / b_bias=0 / direct=1 / weightb=1 / open_gop=0 / weightp=2 / keyint=250 / keyint_min=23 / scenecut=40 / intra_refresh=0 / rc_lookahead=40 / rc=crf / mbtree=1 / crf=20.0 / qcomp=0.60 / qpmin=0 / qpmax=69 / qpstep=4 / ip_ratio=1.40 / aq=1:0.00
Default: Yes
Forced: No

Audio #1
ID: 2
Format: AC-3
Format/Info: Audio Coding 3
Mode extension: CM (complete main)
Format settings, Endianness: Big
Muxing mode: Header stripping
Codec ID: A_AC3
Duration: 57mn 40s
Bit rate mode: Constant
Bit rate: 192 Kbps
Channel(s): 2 channels
Channel positions: Front: L R
Sampling rate: 48.0 KHz
Bit depth: 16 bits
Compression mode: Lossy
Stream size: 79.2 MiB (3%)
Title: R5
Language: Russian
Default: Yes
Forced: No

Audio #2
ID: 3
Format: DTS
Format/Info: Digital Theater Systems
Muxing mode: Header stripping
Codec ID: A_DTS
Duration: 57mn 40s
Bit rate mode: Constant
Bit rate: 1 510 Kbps
Channel(s): 6 channels
Channel positions: Front: L C R, Side: L R, LFE
Sampling rate: 48.0 KHz
Bit depth: 24 bits
Compression mode: Lossy
Delay relative to video: 11ms
Stream size: 623 MiB (24%)
Title: English
Language: English
Default: No
Forced: No

Text #1
ID: 4
Format: VobSub
Muxing mode: zlib
Codec ID: S_VOBSUB
Codec ID/Info: The same subtitle format used on DVDs
Language: English
Default: No
Forced: No

Text #2
ID: 5
Format: VobSub
Muxing mode: zlib
Codec ID: S_VOBSUB
Codec ID/Info: The same subtitle format used on DVDs
Language: German
Default: No
Forced: No





реклама партнёра


Вернуться к началу
 Профиль Отправить личное сообщение  
 
   Похожие торренты   Автор   Торрент   Размер 
В этой теме нет новых непрочитанных сообщений. Том и Джерри: Большие гонки / Tom and Jerry's Greatest Chases [01 - 70 из 70] [мультфильм, комедия, семейный, 1941-1958] DVDRip-AVC, Mvo+Sub [лицензия]

salma3

30 | 2

7.7 ГБ

В этой теме нет новых непрочитанных сообщений. Том и Джерри: Большие гонки / Tom and Jerry's Greatest Chases [01 - 70 из 70] [мультфильм, комедия, семейный, 1941-1958] DVDRip, Mvo+Sub [лицензия]

salma3

18 | 12

7.61 ГБ

В этой теме нет новых непрочитанных сообщений. Робин Гуд / Robin Hood [S01-03] [боевик, мелодрама, драма, приключения, 2006-2009] DVDRip, Mvo [NovaFilm]

salma3

107 | 24

14.91 ГБ

В этой теме нет новых непрочитанных сообщений. Том и Джерри: Нибблз и Туффи / Tom and Jerry [Мультфильм, 1940] DVD5, Mvo+Sub [Лицензия]

salma3

37 | 25

2.32 ГБ

В этой теме нет новых непрочитанных сообщений. Том и Джерри: Потерянный дракон / Tom & Jerry: The Lost Dragon [мультфильм, комедия, 2014] DVD5, Mvo+Sub [лицензия]

Dracon

37 | 6

3.74 ГБ

В этой теме нет новых непрочитанных сообщений. Том и Джерри: Потерянный дракон / Tom & Jerry: The Lost Dragon [мультфильм, комедия, 2014] DVDRip, Mvo+Sub [лицензия]

Dracon

194 | 7

1.23 ГБ

В этой теме нет новых непрочитанных сообщений. Том и Джерри: Потерянный дракон / Tom & Jerry: The Lost Dragon (Тони Червоне) [2014, мультфильм, комедия, DVDRip | лицензия]

Nickolas3435

444 | 14

744.79 МБ


Начать новую тему Ответить на тему  [ 1 сообщение ] 




Для Мосгорсуда, Роскомнадзора и рекламодателей:: mosgorsud-torrent[собачка]yandex.ru