Торрент файл
скачать торрент магнет ссылка Добавлен: 02 ноя 2012, 21:01
Размер: 3.84 ГБ
Сидеров: 4
Личеров: 3
Статус: (Aleksandr.ru)
Автор

СообщениеДобавлено: 02 ноя 2012, 21:01 

Не в сети
Супермодератор
Аватара пользователя
Дата регистрации:
22 май 2010, 12:40
Спасибо: 2027 / 98
Сообщения: 2963
Откуда: Н.Новгород

Информация о фильме
Название: Храбрая сердцем
Оригинальное название: Brave
Год выхода: 2012
Жанр: Мультфильм, фэнтези, комедия, приключения, семейный
Режиссер: Марк Эндрюс, Бренда Чэпман, Стив Пурселл
В ролях: Робби Колтрейн, Келли Макдоналд, Эмма Томпсон, Джули Уолтерс, Кевин МакКидд, Крэйг Фергюсон, Билли Коннолли

О фильме:
Испокон веков мифы и легенды окутывают загадочной пеленой живописные отроги Шотландских гор. Искусной лучнице Мериде приходится выбирать свой путь в жизни самостоятельно, и однажды она отказывается следовать древним традициям королевства, бросая вызов могущественным шотландским кланам и их предводителям: нескладному лорду МакГаффину, угрюмому лорду Макинтошу и сварливому лорду Дингволлу. Неосторожные поступки Мериды грозят повергнуть королевство в хаос, и тогда она отправляется за советом к эксцентричной отшельнице, которая вместо помощи накладывает на Мериду опасное заклятье. Юной принцессе предстоит полагаться только на собственную храбрость, чтобы преодолеть могущественное волшебство и победить самого страшного зверя из тех, что водятся в горных долинах.



Страна: США
Студия: Pixar Animation Studios, Walt Disney Pictures
Продолжительность: 01:34:12
Перевод: Дублированный [HTB+]

Файл
Кодек: AVC
Качество: BDRip 720p
Видео: 1280x536, 23.976 fps, 4500 Kbps
Аудио 1: AC3, 48 KHz, 6 ch, 384 Kbps [Russian]
Аудио 2: AC3, 48 KHz, 6 ch, 640 Kbps [English]
Аудио 3: AC3, 48 KHz, 2 ch, 320 Kbps [English Commentary]
Субтитры: English
Дополнительно: Сохранены оригинальные чаптеры как на Blu-Ray.

Семпл

General
Unique ID: 201038816223518323600038996991859899119 (0x973EAAE8CF7171DEA78920E0CB5E3AEF)
Complete name: F:Hrabrim.serdcem.2012.D.BDRip.720p.HDChina.mkv
Format: Matroska
Format version: Version 2
File size: 3.84 GiB
Duration: 1h 34mn
Overall bit rate: 5 850 Kbps
Encoded date: UTC 2012-11-02 08:48:57
Writing application: mkvmerge v5.8.0 ('No Sleep / Pillow') built on Sep2 2012 15:37:04
Writing library: libebml v1.2.3 + libmatroska v1.3.0

Video
ID: 1
Format: AVC
Format/Info: Advanced Video Codec
Format profile: High@L4.1
Format settings, CABAC: Yes
Format settings, ReFrames: 12 frames
Codec ID: V_MPEG4/ISO/AVC
Duration: 1h 34mn
Bit rate: 4 500 Kbps
Width: 1 280 pixels
Height: 536 pixels
Display aspect ratio: 2.40:1
Frame rate: 23.976 fps
Color space: YUV
Chroma subsampling: 4:2:0
Bit depth: 8 bits
Scan type: Progressive
Bits/(Pixel*Frame): 0.274
Stream size: 2.88 GiB (75%)
Writing library: x264 core 128 r2216+688+33 06dac27 tMod+MixAQ [8-bit@4:2:0 X86_64]
Encoding settings: cabac=1 / ref=12 / deblock=1:-2:-2 / analyse=0x3:0x113 / me=umh / subme=10 / psy=1 / fade_compensate=0.00 / psy_rd=0.85:0.00 / mixed_ref=1 / me_range=32 / chroma_me=1 / trellis=2 / 8x8dct=1 / cqm=0 / deadzone=21,11 / fast_pskip=0 / chroma_qp_offset=-2 / threads=18 / lookahead_threads=3 / sliced_threads=0 / nr=0 / decimate=0 / interlaced=0 / bluray_compat=0 / constrained_intra=0 / fgo=0 / bframes=8 / b_pyramid=2 / b_adapt=2 / b_bias=0 / direct=3 / weightb=1 / open_gop=0 / weightp=2 / keyint=240 / keyint_min=24 / scenecut=40 / intra_refresh=0 / rc_lookahead=240 / rc=2pass / mbtree=1 / bitrate=4500 / ratetol=1.0 / qcomp=0.70 / qpmin=0 / qpmax=69 / qpstep=4 / cplxblur=20.0 / qblur=0.5 / ip_ratio=1.10 / aq=4 / aq-strength=1.15 / aq-sensitivity=10.00 / aq-ifactor=1.00 / aq-pfactor=1.00 / aq-bfactor=1.00 / aq2=0
Language: English
Default: Yes
Forced: No

Audio #1
ID: 2
Format: AC-3
Format/Info: Audio Coding 3
Mode extension: CM (complete main)
Codec ID: A_AC3
Duration: 1h 34mn
Bit rate mode: Constant
Bit rate: 384 Kbps
Channel(s): 6 channels
Channel positions: Front: L C R, Side: L R, LFE
Sampling rate: 48.0 KHz
Bit depth: 16 bits
Compression mode: Lossy
Delay relative to video: 1s 800ms
Stream size: 258 MiB (7%)
Title: DUB HTV
Language: Russian
Default: Yes
Forced: No

Audio #2
ID: 3
Format: AC-3
Format/Info: Audio Coding 3
Mode extension: CM (complete main)
Codec ID: A_AC3
Duration: 1h 34mn
Bit rate mode: Constant
Bit rate: 640 Kbps
Channel(s): 6 channels
Channel positions: Front: L C R, Side: L R, LFE
Sampling rate: 48.0 KHz
Bit depth: 16 bits
Compression mode: Lossy
Stream size: 431 MiB (11%)
Language: English
Default: No
Forced: Yes

Audio #3
ID: 4
Format: AC-3
Format/Info: Audio Coding 3
Mode extension: CM (complete main)
Codec ID: A_AC3
Duration: 1h 34mn
Bit rate mode: Constant
Bit rate: 320 Kbps
Channel(s): 2 channels
Channel positions: Front: L R
Sampling rate: 48.0 KHz
Bit depth: 16 bits
Compression mode: Lossy
Stream size: 215 MiB (5%)
Title: commentary
Language: English
Default: No
Forced: No

Text #1
ID: 5
Format: PGS
Muxing mode: zlib
Codec ID: S_HDMV/PGS
Codec ID/Info: The same subtitle format used on BDs/HD-DVDs
Language: English
Default: Yes
Forced: No

Text #2
ID: 6
Format: PGS
Muxing mode: zlib
Codec ID: S_HDMV/PGS
Codec ID/Info: The same subtitle format used on BDs/HD-DVDs
Title: commentary
Language: English
Default: No
Forced: No

Menu
00:00:00.000: en:00:00:00.000
00:04:22.846: en:00:04:22.846
00:09:17.432: en:00:09:17.432
00:12:53.356: en:00:12:53.356
00:14:00.256: en:00:14:00.256
00:16:10.469: en:00:16:10.469
00:17:36.681: en:00:17:36.681
00:22:55.791: en:00:22:55.791
00:27:22.891: en:00:27:22.891
00:28:51.229: en:00:28:51.229
00:30:54.853: en:00:30:54.853
00:34:00.372: en:00:34:00.372
00:36:03.495: en:00:36:03.495
00:39:06.928: en:00:39:06.928
00:41:55.096: en:00:41:55.096
00:43:27.980: en:00:43:27.980
00:47:05.740: en:00:47:05.740
00:48:22.358: en:00:48:22.358
00:51:04.061: en:00:51:04.061
00:52:33.859: en:00:52:33.859
00:54:01.155: en:00:54:01.155
00:54:45.699: en:00:54:45.699
00:57:30.864: en:00:57:30.864
00:59:00.162: en:00:59:00.162
01:02:48.181: en:01:02:48.181
01:03:27.387: en:01:03:27.387
01:09:57.735: en:01:09:57.735
01:10:37.275: en:01:10:37.275
01:12:35.726: en:01:12:35.726
01:13:39.498: en:01:13:39.498
01:15:35.489: en:01:15:35.489
01:16:59.073: en:01:16:59.073
01:17:37.111: en:01:17:37.111
01:19:48.200: en:01:19:48.200
01:23:16.783: en:01:23:16.783
01:24:38.657: en:01:24:38.657
01:32:52.567: en:01:32:52.567





реклама партнёра


Вернуться к началу
 Профиль Отправить личное сообщение  
 
   Похожие торренты   Автор   Торрент   Размер 
В этой теме нет новых непрочитанных сообщений. Ужастики / Goosebumps [фэнтези, комедия, приключения, 2015] BDRip 720p, dub [iTunes]

Dracon

1139 | 55

4.65 ГБ

В этой теме нет новых непрочитанных сообщений. Рамона и Бизус / Ramona and Beezus [фэнтези, комедия, приключения, 2010] BDRip 720p, Mvo=Sub

salma3

62 | 9

4 ГБ

В этой теме нет новых непрочитанных сообщений. Леди-ястреб / Ladyhawke [фэнтези, драма, комедия, приключения, 1985] BDRip 720p, Mvo+Avo

salma3

52 | 15

7.95 ГБ

В этой теме нет новых непрочитанных сообщений. Простое желание / A Simple Wish [Фэнтези, приключения, комедия, семейный, 1997] BDRip 720p, Mvo

salma3

4 | 1

4.42 ГБ

В этой теме нет новых непрочитанных сообщений. Полный расколбас / Sausage Party (мультфильм, фэнтези, комедия, приключения, 2016) BDRip 720p от NNNB | D, A

marya111

0 | 0

4.37 ГБ

В этой теме нет новых непрочитанных сообщений. Семейка монстров / The Boxtrolls [мультфильм, фэнтези, комедия, приключения, семейный, 2014] BDRip 720p, Dub [iTunes]

Dracon

16 | 3

4.72 ГБ

В этой теме нет новых непрочитанных сообщений. Дом / Home (Тим Джонсон) [мультфильм, фантастика, фэнтези, комедия, приключения, семейный, 2015] BDRip 720p, Dub+Sub [лицензия]

Dracon

0 | 0

4.8 ГБ


Начать новую тему Ответить на тему  [ 1 сообщение ] 




Для Мосгорсуда, Роскомнадзора и рекламодателей:: mosgorsud-torrent[собачка]yandex.ru