Торрент файл
скачать торрент магнет ссылка Добавлен: 02 ноя 2012, 08:59
Размер: 1.46 ГБ
Сидеров: 374
Личеров: 11
Статус: (Dracon)
Автор

СообщениеДобавлено: 02 ноя 2012, 08:59 

Не в сети
Зам. Админа
Аватара пользователя
Дата регистрации:
02 дек 2010, 12:39
Спасибо: 12461 / 214
Сообщения: 27968
Год выпуска: 2012
Страна: США
Студия: Nest Entertainment
Продолжительность: 01:20:41

Перевод: Профессиональный (многоголосый закадровый)
Субтитры: нет
Жанр:мультфильм, мюзикл, фэнтези, приключения
Оригинальная аудиодорожка: английский

Режиссер: Ричард Рич / Richard Rich

Роли озвучивали:Юрий Ловенталь, Дэвид Лодж, Саммер Егучи, Даг Стоун, Брайан Ниссен, Сэм Стоун, Клэйтон Маккэй, Michaelangelo, Джеймс Аррингтон, Joey Lotsko...

Описание: Мультипликационный фильм "Принцесса-лебедь: Рождество" режиссера Ричарда Рича создан по мотивам знаменитого балета "Лебединое озеро". Это четвертый, последний анимационный фильм из серии фильмов о "Принцессе-лебеде".
Все герои этой фантастической истории счастливо живут в старинном замке прямо на Лебедином озере. Принц Дерек и принцесса Одетт влюблены друг в друга. Дерек и Одетт решают в королевском замке отметить вместе свои первые рождественские праздники. Но злой колдун Ротбарт решает испортить им Рождество и на помощь себе призывает темную магию. Однако, сила любви и праздничный рождественский дух побеждают силы зла...





Исходник: DVD5 R5
Тип релиза: DVDRip
Контейнер: AVI

Видео: 720x400 (16:9), 25 fps, XviD ~ 2191 kbps avg, 0.304 bit/pixel
Аудио: 48 kHz, AC3, 2 ch, 192.00 kbps Русский
Аудио: 48 kHz, AC3, 2 ch, 192.00 kbps Английский

Раздача от:

Общее
Полное имя: Princessa-lebed'.Rozhdestvo.2012.DVDRip_[Youtracker]_by_AVP Studio.avi
Формат: AVI
Формат/Информация: Audio Video Interleave
Размер файла: 1,46 Гбайт
Продолжительность: 1 ч. 20 м.
Общий поток: 2590 Кбит/сек
Программа кодирования: VirtualDubModRus 1.5.10.2 (build 2542/release)
Библиотека кодирования: VirtualDubMod build 2542/release

Видео
Идентификатор: 0
Формат: MPEG-4 Visual
Профиль формата: Advanced Simple@L5
Параметр BVOP формата: 1
Параметр QPel формата: Нет
Параметр GMC формата: Без точки перехода
Параметр матрицы формата: Выборочная
Идентификатор кодека: XVID
Идентификатор кодека/Подсказка: XviD
Продолжительность: 1 ч. 20 м.
Битрейт: 2191 Кбит/сек
Ширина: 720 пикселей
Высота: 400 пикселей
Соотношение сторон: 16:9
Частота кадров: 25,000 кадров/сек
Цветовое пространство: YUV
Субдискретизация насыщенности: 4:2:0
Битовая глубина: 8 бит
Тип развёртки: Прогрессивная
Метод сжатия: С потерями
Бит/(Пиксели*Кадры): 0.304
Размер потока: 1,23 Гбайт (85%)
Библиотека кодирования: XviD 65

Аудио #1
Идентификатор: 1
Формат: AC-3
Формат/Информация: Audio Coding 3
Расширение режима: CM (complete main)
Идентификатор кодека: 2000
Продолжительность: 1 ч. 20 м.
Вид битрейта: Постоянный
Битрейт: 192 Кбит/сек
Каналы: 2 канала
Расположение каналов: Front: L R
Частота: 48,0 КГц
Битовая глубина: 16 бит
Метод сжатия: С потерями
Размер потока: 111 Мбайт (7%)
Выравнивание: Разделение по промежуткам
Продолжительность промежутка: 40мс. (1,00 видеокадр)
Время предзагрузки промежутка: 500мс.

Аудио #2
Идентификатор: 2
Формат: AC-3
Формат/Информация: Audio Coding 3
Профиль формата: Dolby Digital
Расширение режима: CM (complete main)
Идентификатор кодека: 2000
Продолжительность: 1 ч. 20 м.
Вид битрейта: Постоянный
Битрейт: 192 Кбит/сек
Каналы: 2 канала
Расположение каналов: Front: L R
Частота: 48,0 КГц
Битовая глубина: 16 бит
Метод сжатия: С потерями
Размер потока: 111 Мбайт (7%)
Выравнивание: Разделение по промежуткам
Продолжительность промежутка: 40мс. (1,00 видеокадр)
Время предзагрузки промежутка: 500мс






реклама партнёра


Вернуться к началу
 Профиль  
 
   Похожие торренты   Автор   Торрент   Размер 
В этой теме нет новых непрочитанных сообщений. Принцесса Лебедь: Пират или принцесса? / The Swan Princess: Princess Tomorrow, Pirate Today! [Мультфильм, семейный, 2016] WEB-DLRip, Mvo [iTunes]

salma3

141 | 98

1.37 ГБ

В этой теме нет новых непрочитанных сообщений. Принцесса Лебедь: Пират или принцесса? / The Swan Princess: Princess Tomorrow, Pirate Today! [Мультфильм, семейный, 2016] WEB-DL 720p, Mvo [iTunes]

salma3

590 | 117

2.51 ГБ

В этой теме нет новых непрочитанных сообщений. Очень странное рождество / Рождество с волшебными родителями / A Fairly Odd Christmas (Сэвидж Стив Холланд) [2012, фэнтези, комедия, семейный, SATRip] DUB

Nickolas3435

35 | 6

1.08 ГБ

В этой теме нет новых непрочитанных сообщений. София Прекрасная: История принцессы / Sofia the First: Once Upon a Princess [мюзикл, фэнтези, семейный, 2012] DVDRip, Dub

salma3

134 | 7

652.47 МБ

В этой теме нет новых непрочитанных сообщений. Кот Феликс спасает рождество / Котенок Феликс спасает Рождество / Miracle in Toyland [Мультфильм, мюзикл, семейный, 2004] DVDRip, Dvo

salma3

6 | 6

1.3 ГБ

В этой теме нет новых непрочитанных сообщений. Светлое Рождество / White Christmas [Мюзикл, мелодрама, комедия, 1954] BDRip 1080p, Dvo

salma3

10 | 7

8.7 ГБ

В этой теме нет новых непрочитанных сообщений. Принцесса и семь мастеров кунг-фу / Princess And Seven Kung Fu Masters [боевик, комедия, приключения, 2013] DVDRip, Avo

Dracon

117 | 5

1.38 ГБ


Начать новую тему Ответить на тему  [ 1 сообщение ] 




Для Мосгорсуда, Роскомнадзора и рекламодателей:: mosgorsud-torrent[собачка]yandex.ru