Торрент файл
скачать торрент магнет ссылка Добавлен: 25 окт 2012, 14:24
Размер: 8.54 ГБ
Сидеров: 27
Личеров: 3
Статус: (Dracon)
Автор

СообщениеДобавлено: 25 окт 2012, 14:24 

Не в сети
Зам. Админа
Аватара пользователя
Дата регистрации:
02 дек 2010, 12:39
Спасибо: 12623 / 214
Сообщения: 28012

Год выхода: 2012
Жанр: Мультфильм, комедия, приключения, семейный,
Режиссер: Стив Мартино, Майк Трумейер
В ролях: Рэй Романо, Джон Легуизамо, Куин Латифа, Дэнис Лири, Джош Пек, Азиз Ансари, Джой Бехар, Кристофер Кэмпбелл, Ален Шаба, Эстер Дин

О фильме:
После приключений под землей прошло семь лет. Случился дрейф континентов. Главные герои мультфильма, отделённые от стада, вынуждены использовать айсберг в качестве плота. Они пересекают океан и попадают в неизвестные им ранее земли с экзотическими животными и пиратами, враждебно настроенными к ним. Скрэту удаётся получить свой жёлудь, но он перемещается в новые для него земли.



Страна: США
Студия: Blue Sky Studios
Продолжительность: 01:27:45
Перевод: Дублированный [Лицензия]

Кодек: AVC
Качество: BDRip 1080p
Видео: 1920x800, 23,976 fps, 10.9 Mbps
Аудио #1: DTS, 48 kHz, 6 ch, 755 Kbps [Russian]
Аудио #2: AC3, 48 kHz, 6 ch, 448 Kbps [Ukrainian]
Аудио #3: DTS, 48 kHz, 6 ch, 1510 Kbps [English]
Субтитры: Russian, Ukrainian, English, Portuguese
Дополнительно: Сохранены оригинальные чаптеры как на Blu-Ray.

Семпл

General
Unique ID: 177795703602319369683317837084714000932 (0x85C234FB029715DCBC7B0E636E3EE224)
Complete name: E:Lednikovyj.period.4.Kontinentalnyj.drejf.2012.D.BDRip.1080p.IRONCLUB.mkv
Format: Matroska
Format version: Version 2
File size: 8.54 GiB
Duration: 1h 27mn
Overall bit rate: 13.9 Mbps
Movie name: IRONCLUB
Encoded date: UTC 2012-10-24 19:35:32
Writing application: mkvmerge v4.9.1 ('Ich will') сборка от Jul 11 2011 23:53:15
Writing library: libebml v1.2.1 + libmatroska v1.1.1

Video
ID: 1
Format: AVC
Format/Info: Advanced Video Codec
Format profile: High@L4.1
Format settings, CABAC: Yes
Format settings, ReFrames: 5 frames
Codec ID: V_MPEG4/ISO/AVC
Duration: 1h 27mn
Bit rate: 10.9 Mbps
Width: 1 920 pixels
Height: 800 pixels
Display aspect ratio: 2.40:1
Frame rate: 23.976 fps
Color space: YUV
Chroma subsampling: 4:2:0
Bit depth: 8 bits
Scan type: Progressive
Bits/(Pixel*Frame): 0.297
Stream size: 6.70 GiB (79%)
Title: Ice.Age.Continental.Drift.2012.1080p.BluRay.DTS.x264-CtrlHD
Writing library: x264 core 128 r2216kMod 198a7ea
Encoding settings: cabac=1 / ref=5 / deblock=1:-3:-3 / analyse=0x3:0x113 / me=umh / subme=9 / psy=1 / fade_compensate=0.00 / psy_rd=1.02:0.00 / mixed_ref=1 / me_range=16 / chroma_me=1 / trellis=2 / 8x8dct=1 / cqm=0 / deadzone=21,11 / fast_pskip=0 / chroma_qp_offset=-2 / threads=6 / lookahead_threads=1 / sliced_threads=0 / nr=0 / decimate=0 / interlaced=0 / bluray_compat=0 / constrained_intra=0 / bframes=8 / b_pyramid=2 / b_adapt=2 / b_bias=0 / direct=3 / weightb=1 / open_gop=0 / weightp=2 / keyint=250 / keyint_min=23 / scenecut=40 / intra_refresh=0 / rc_lookahead=40 / rc=crf / mbtree=1 / crf=18.0000 / qcomp=0.75 / qpmin=0 / qpmax=69 / qpstep=4 / ip_ratio=1.30 / aq=3:1.10
Language: English
Default: Yes
Forced: Yes

Audio #1
ID: 2
Format: DTS
Format/Info: Digital Theater Systems
Codec ID: A_DTS
Duration: 1h 27mn
Bit rate mode: Constant
Bit rate: 755 Kbps
Channel(s): 6 channels
Channel positions: Front: L C R, Side: L R, LFE
Sampling rate: 48.0 KHz
Bit depth: 24 bits
Compression mode: Lossy
Stream size: 474 MiB (5%)
Title: DTS 5.1 @ 768 kbps - Dub, BD CEE
Language: Russian
Default: Yes
Forced: Yes

Audio #2
ID: 3
Format: AC-3
Format/Info: Audio Coding 3
Mode extension: CM (complete main)
Format settings, Endianness: Big
Codec ID: A_AC3
Duration: 1h 27mn
Bit rate mode: Constant
Bit rate: 448 Kbps
Channel(s): 6 channels
Channel positions: Front: L C R, Side: L R, LFE
Sampling rate: 48.0 KHz
Bit depth: 16 bits
Compression mode: Lossy
Stream size: 281 MiB (3%)
Title: DD 5.1 @ 448 kbps - Dub, BD CEE
Language: Ukrainian
Default: No
Forced: No

Audio #3
ID: 4
Format: DTS
Format/Info: Digital Theater Systems
Codec ID: A_DTS
Duration: 1h 27mn
Bit rate mode: Constant
Bit rate: 1 510 Kbps
Channel(s): 6 channels
Channel positions: Front: L C R, Side: L R, LFE
Sampling rate: 48.0 KHz
Bit depth: 24 bits
Compression mode: Lossy
Stream size: 948 MiB (11%)
Title: DTS 5.1 @ 1536 kbps
Language: English
Default: No
Forced: No

Text #1
ID: 5
Format: UTF-8
Codec ID: S_TEXT/UTF8
Codec ID/Info: UTF-8 Plain Text
Title: BD CEE
Language: Russian
Default: No
Forced: No

Text #2
ID: 6
Format: UTF-8
Codec ID: S_TEXT/UTF8
Codec ID/Info: UTF-8 Plain Text
Title: BD CEE
Language: Ukrainian
Default: No
Forced: No

Text #3
ID: 7
Format: UTF-8
Codec ID: S_TEXT/UTF8
Codec ID/Info: UTF-8 Plain Text
Language: English
Default: No
Forced: No

Text #4
ID: 8
Format: UTF-8
Codec ID: S_TEXT/UTF8
Codec ID/Info: UTF-8 Plain Text
Language: Portuguese
Default: No
Forced: No

Menu
00:00:00.000: en:00:00:00.000
00:03:24.037: en:00:03:24.037
00:05:07.224: en:00:05:07.224
00:09:33.406: en:00:09:33.406
00:13:08.705: en:00:13:08.705
00:15:55.329: en:00:15:55.329
00:18:22.643: en:00:18:22.643
00:22:23.717: en:00:22:23.717
00:25:56.555: en:00:25:56.555
00:29:17.965: en:00:29:17.965
00:32:57.601: en:00:32:57.601
00:36:14.381: en:00:36:14.381
00:38:41.653: en:00:38:41.653
00:43:48.709: en:00:43:48.709
00:45:29.644: en:00:45:29.644
00:49:38.976: en:00:49:38.976
00:53:49.476: en:00:53:49.476
00:57:22.856: en:00:57:22.856
01:02:31.039: en:01:02:31.039
01:08:08.334: en:01:08:08.334
01:11:10.475: en:01:11:10.475
01:13:14.640: en:01:13:14.640
01:16:53.400: en:01:16:53.400
01:19:23.634: en:01:19:23.634


Релиз от:




реклама партнёра


Вернуться к началу
 Профиль  
 
   Похожие торренты   Автор   Торрент   Размер 
В этой теме нет новых непрочитанных сообщений. Ледниковый период: Столкновение неизбежно / Ice Age: Collision Cours [мультфильм, фантастика, комедия, приключения, семейный, 2016] BDRip 1080p, Dub [Лицензия]

salma3

165 | 90

7.79 ГБ

В этой теме нет новых непрочитанных сообщений. Ледниковый период: Столкновение неизбежно / Ice Age: Collision Course [Мультфильм, комедия, приключения, семейный, 2016] BDRip 720p, Dub [Лицензия]

salma3

4 | 5

5.05 ГБ

В этой теме нет новых непрочитанных сообщений. Ледниковый период: Столкновение неизбежно / Ice Age: Collision Course (Мультфильм, полнометражный, комедия, приключения, семейный, 2016) BDRemux 1080p от ExKinoRay | 3D-Video | Лицензия

marya111

5 | 1

31.37 ГБ

В этой теме нет новых непрочитанных сообщений. Ледниковый период: Столкновение неизбежно ( Мультфильм, Фантастика, Комедия, Приключения, Семейный, 2016) BDRip 1080p от Ash61 | 3D-Video | halfOU | iTunes

marya111

155 | 10

8.29 ГБ

В этой теме нет новых непрочитанных сообщений. Ледниковый период: Столкновение неизбежно (мультфильм, фантастика, комедия, приключения, семейный,2016) BDRip от ExKinoRay | iTunes

marya111

202 | 2

1.42 ГБ

В этой теме нет новых непрочитанных сообщений. Ледниковый период: Столкновение неизбежно / Ice Age: Collision Course [Мультфильм, фантастика, комедия, 2016] BDRip 1080p, Dub [Лицензия] [3D-Video]

salma3

231 | 79

9.06 ГБ

В этой теме нет новых непрочитанных сообщений. Ледниковый период: Столкновение неизбежно / Ice Age: Collision Course [Мультфильм, полнометражный, комедия, 2016] BDRemux 1080p, Dub [Лицензия]

salma3

26 | 36

20.27 ГБ


Начать новую тему Ответить на тему  [ 1 сообщение ] 




Для Мосгорсуда, Роскомнадзора и рекламодателей:: mosgorsud-torrent[собачка]yandex.ru