Торрент файл
скачать торрент магнет ссылка Добавлен: 22 окт 2012, 09:37
Размер: 4.38 ГБ
Сидеров: 22
Личеров: 2
Статус: (Dracon)
Автор

СообщениеДобавлено: 22 окт 2012, 09:37 

Не в сети
Зам. Админа
Аватара пользователя
Дата регистрации:
02 дек 2010, 12:39
Спасибо: 12461 / 214
Сообщения: 27968

Год выхода: 2012
Жанр:мультфильм, комедия, приключения, семейный
Режиссер: Эрик Дарнелл / Eric Darnell, Том МакГрат / Tom McGrath, Конрад Вернон / Conrad Vernon
В ролях: Бен Стиллер, Крис Рок, Дэвид Швиммер, Джада Пинкетт Смит, Саша Барон Коэн, Седрик «Развлекатель», Энди Рихтер, Том МакГрат, Фрэнсис МакДорманд, Джессика Честейн

О фильме:
Лев Алекс, зебра Марти, гиппопотамиха Глория и жираф Мелман, а также король Джулиан, Морис, Морт и Пингвины все еще пытаются вернуться в Нью-Йорк. На этот раз их путь пройдет через Европу, где они откроют свой цирк.



Выпущено: США
Продолжительность:01:33:24
Перевод: Дублированный

Кодек: x264
Качество: BDRip 1080p
Видео: 1920x1080, 6064 Kbps, 23.976 fps
Звук: 48 kHz, AC3, 6c, 640 kbps
Субтитры: русские (форс,полные), английские

Общее
Уникальный идентификатор: 207026664811259670240330354835712171866 (0x9BBFE2A3538C1D14B5E7462977F4DF5A)
Полное имя: Мадагаскар 3.2012.BDRip.1080p.Rus.mkv
Формат: Matroska
Версия формата: Version 4 / Version 2
Размер файла: 4,38 Гбайт
Продолжительность: 1 ч. 33 м.
Общий поток: 6707 Кбит/сек
Название фильма: Мадагаскар 3.2012
Дата кодирования: UTC 2010-02-22 21:41:31
Программа кодирования: mkvmerge v5.8.0 ('No Sleep / Pillow') built on Sep 30 2012 10:57:14
Библиотека кодирования: libebml v1.3.0 + libmatroska v1.4.0

Видео
Идентификатор: 1
Формат: AVC
Формат/Информация: Advanced Video Codec
Профиль формата: High@L4.1
Параметр CABAC формата: Да
Параметр ReFrames формата: 4 кадра
Идентификатор кодека: V_MPEG4/ISO/AVC
Продолжительность: 1 ч. 33 м.
Битрейт: 6064 Кбит/сек
Ширина: 1920 пикселей
Высота: 1080 пикселей
Соотношение сторон: 16:9
Режим частоты кадров: Постоянный
Частота кадров: 23,976 кадра/сек
Цветовое пространство: YUV
Субдискретизация насыщенности: 4:2:0
Битовая глубина: 8 бит
Тип развёртки: Прогрессивная
Бит/(Пиксели*Кадры): 0.122
Размер потока: 3,87 Гбайт (88%)
Заголовок: Rip by Boriy
Библиотека кодирования: x264 core 128 r2216 198a7ea
Настройки программы: cabac=1 / ref=4 / deblock=1:0:0 / analyse=0x3:0x113 / me=umh / subme=10 / psy=1 / psy_rd=1.00:0.10 / mixed_ref=1 / me_range=32 / chroma_me=1 / trellis=2 / 8x8dct=1 / cqm=0 / deadzone=21,11 / fast_pskip=0 / chroma_qp_offset=-3 / threads=12 / lookahead_threads=2 / sliced_threads=0 / nr=0 / decimate=0 / interlaced=0 / bluray_compat=0 / constrained_intra=0 / bframes=5 / b_pyramid=2 / b_adapt=2 / b_bias=0 / direct=3 / weightb=1 / open_gop=0 / weightp=2 / keyint=240 / keyint_min=23 / scenecut=40 / intra_refresh=0 / rc=2pass / mbtree=0 / bitrate=6064 / ratetol=1.0 / qcomp=0.60 / qpmin=0 / qpmax=69 / qpstep=4 / cplxblur=20.0 / qblur=0.5 / ip_ratio=1.40 / pb_ratio=1.30 / aq=1:1.00
Язык: English
Default: Да
Forced: Нет

Аудио
Идентификатор: 2
Формат: AC-3
Формат/Информация: Audio Coding 3
Расширение режима: CM (complete main)
Параметр Endianness формата: Big
Идентификатор кодека: A_AC3
Продолжительность: 1 ч. 33 м.
Вид битрейта: Постоянный
Битрейт: 640 Кбит/сек
Каналы: 6 каналов
Расположение каналов: Front: L C R, Side: L R, LFE
Частота: 48,0 КГц
Битовая глубина: 16 бит
Метод сжатия: С потерями
Размер потока: 428 Мбайт (10%)
Заголовок: Дубляж
Язык: Russian
Default: Да
Forced: Нет

Текст #1
Идентификатор: 3
Формат: UTF-8
Идентификатор кодека: S_TEXT/UTF8
Идентификатор кодека/Информация: UTF-8 Plain Text
Заголовок: Forced
Язык: Russian
Default: Да
Forced: Да

Текст #2
Идентификатор: 4
Формат: UTF-8
Идентификатор кодека: S_TEXT/UTF8
Идентификатор кодека/Информация: UTF-8 Plain Text
Заголовок: Full
Язык: Russian
Default: Нет
Forced: Нет

Текст #3
Идентификатор: 5
Формат: UTF-8
Идентификатор кодека: S_TEXT/UTF8
Идентификатор кодека/Информация: UTF-8 Plain Text
Заголовок: Full
Язык: English
Default: Нет
Forced: Нет

Меню
00:00:00.000: :Chapter 1
00:05:16.315: :Chapter 2
00:10:51.984: :Chapter 3
00:19:46.310: :Chapter 4
00:27:49.834: :Chapter 5
00:32:50.551: :Chapter 6
00:40:34.974: :Chapter 7
00:46:51.975: :Chapter 8
00:52:00.534: :Chapter 9
00:58:55.156: :Chapter 10
01:00:23.411: :Chapter 11
01:04:19.313: :Chapter 12
01:10:59.672: :Chapter 13
01:15:30.317: :Chapter 14
01:21:09.781: :Chapter 15
01:22:48.630: :Chapter 16
01:33:23.931: :Chapter 17




реклама партнёра


Вернуться к началу
 Профиль  
 
   Похожие торренты   Автор   Торрент   Размер 
В этой теме нет новых непрочитанных сообщений. Пингвины Мадагаскара / Penguins of Madagascar (Эрик Дарнелл, Саймон Дж. Смит) [мультфильм, комедия, приключения, семейный, 2014] BDRip 1080p, Dub+Sub [iTunes]

Dracon

76 | 3

4.08 ГБ

В этой теме нет новых непрочитанных сообщений. Пингвины Мадагаскара / Penguins of Madagascar (Эрик Дарнелл, Саймон Дж. Смит) [мультфильм, комедия, приключения, семейный, 2014] BDRip 1080p, Dub+Sub [Лицензия]

Dracon

280 | 13

9.99 ГБ

В этой теме нет новых непрочитанных сообщений. Пингвины Мадагаскара / Penguins of Madagascar (Эрик Дарнелл, Саймон Дж. Смит) [мультфильм, комедия, приключения, семейный, 2014] BDRip 1080p, Dub+Sub [3D-Video | Лицензия]

Dracon

81 | 3

7.3 ГБ

В этой теме нет новых непрочитанных сообщений. Пингвины Мадагаскара / Penguins of Madagascar (Эрик Дарнелл, Саймон Дж. Смит) [мультфильм, комедия, приключения, семейный, 2014] BDRip 1080p, Dub+Sub [3D-Video | Лицензия]

Dracon

22 | 3

8.36 ГБ

В этой теме нет новых непрочитанных сообщений. Пингвины Мадагаскара / Penguins of Madagascar [мультфильм, комедия, приключения, семейный, 2014] WEBRip 1080p, dub [Чистый звук]

Dracon

358 | 5

3.25 ГБ

В этой теме нет новых непрочитанных сообщений. Пингвины Мадагаскара / Penguins of Madagascar (Эрик Дарнелл, Саймон Дж. Смит) [мультфильм, комедия, приключения, семейный, 2014] BDRemux 1080p, Dub+Sub [Лицензия]

Dracon

24 | 5

22.1 ГБ

В этой теме нет новых непрочитанных сообщений. Пингвины Мадагаскара 2D, 3D / Penguins of Madagascar 2D, 3D (Эрик Дарнелл, Саймон Дж. Смит) [мультфильм, комедия, приключения, семейный, 2014] BDRemux 1080p, Dub+Sub [3D-Video | Лицензия]

Dracon

10 | 3

33.3 ГБ


Начать новую тему Ответить на тему  [ 1 сообщение ] 




Для Мосгорсуда, Роскомнадзора и рекламодателей:: mosgorsud-torrent[собачка]yandex.ru