Торрент файл
скачать торрент магнет ссылка Добавлен: 14 окт 2012, 18:07
Размер: 2.73 ГБ
Сидеров: 23
Личеров: 10
Автор

СообщениеДобавлено: 14 окт 2012, 18:30 

Не в сети
5 Звёзд
Аватара пользователя
Дата регистрации:
20 апр 2012, 10:59
Возраст: 35
Спасибо: 941 / 102
Сообщения: 1292
Откуда: Москва

Название: Школа монстров
Оригинальное название: Monster High
Страна: США
Жанр: Семейный, Фантастика, Комедия

Продолжительность:
0 серия: 00:00:22:02,
1 Сезон: 00:01:40,
2 Сезон: 00:03:21,
3 Сезон: 00:02:24,
СпецВыпуск: 00:44:07

Год выпуска: 2010
Перевод: Профессиональный (дублированный)
Русские субтитры: нет
Режиссёр: Ауду Паден

Описание: В основе концепции Monster High лежит история о школе, где дети Мумии, Франкенштейна и других знаменитых киногероев их круга учатся вместе.

Семпл: http://multi-up.com/531739

General
Complete name : C:\Users\artm8\Documents\Any DVD Converter Professional\AVI\Monster 1 sasion 1 episode_xvid.avi
Format : AVI
Format/Info : Audio Video Interleave
File size : 28.1 MiB
Duration : 1mn 40s
Overall bit rate : 2 334 Kbps
Writing application : MEncoder Sherpya-SVN-r32492-4.2.5
Writing library : MPlayer

Video
ID : 0
Format : MPEG-4 Visual
Format profile : Simple@L3
Format settings, BVOP : No
Format settings, QPel : No
Format settings, GMC : No warppoints
Format settings, Matrix : Default (H.263)
Codec ID : XVID
Codec ID/Hint : XviD
Duration : 1mn 40s
Bit rate : 2 096 Kbps
Width : 534 pixels
Height : 300 pixels
Display aspect ratio : 16:9
Frame rate : 30.000 fps
Resolution : 8 bits
Colorimetry : 4:2:0
Scan type : Progressive
Bits/(Pixel*Frame) : 0.436
Stream size : 25.2 MiB (90%)
Writing library : XviD 1.2.1 (UTC 2008-12-04)

Audio
ID : 1
Format : MPEG Audio
Format version : Version 1
Format profile : Layer 3
Mode : Joint stereo
Format_Settings_ModeExtension : MS Stereo
Codec ID : 55
Codec ID/Hint : MP3
Duration : 1mn 40s
Bit rate mode : Variable
Bit rate : 224 Kbps
Channel(s) : 2 channels
Sampling rate : 48.0 KHz
Stream size : 2.69 MiB (10%)
Alignment : Aligned on interleaves
Interleave, duration : 24 ms (0.72 video frame)
Interleave, preload duration : 483 ms

Качество: DVDRip
Формат: AVI
Видео: DVDrip, 534X300, 30fps, 2 096 Kbps
Аудио: 48 Hz, 2(Stereo), 224 kbps
Субтитры: отсутствуют


_________________




реклама партнёра


Вернуться к началу
 Профиль Отправить личное сообщение  
 
   Похожие торренты   Автор   Торрент   Размер 
В этой теме нет новых непрочитанных сообщений. Школа монстров: Страх! Камера! Мотор! / Monster High: Frights, Camera, Action! [мультфильм, 2014] HDRip, Dub

Dracon

798 | 28

1.37 ГБ

В этой теме нет новых непрочитанных сообщений. Атомная школа: Возвращение / Return to Nuke 'Em High Volume 1 [Ужасы, фантастика, комедия, 2013] DVDRip, Dvo

salma3

39 | 3

1.3 ГБ

В этой теме нет новых непрочитанных сообщений. Клуб монстров / The Monster Club [ужасы, комедия, 1981] BDRip 1080p, Avo

salma3

28 | 12

7.35 ГБ

В этой теме нет новых непрочитанных сообщений. Бал монстров / Monster's Ball [Драма, мелодрама, 2001] BDRip 720p, Mvo+Sub

salma3

43 | 4

4.87 ГБ

В этой теме нет новых непрочитанных сообщений. Бал монстров / Monster's Ball [Драма, мелодрама, 2001] BDRip 1080p, Mvo+Sub

salma3

14 | 4

10.22 ГБ

В этой теме нет новых непрочитанных сообщений. Тройной агент / Triple agent (Эрик Ромер / Eric Rohmer) [2004г., драма, DVDRip-AVC] MVO

Alfredovich

5 | 6

2.18 ГБ

В этой теме нет новых непрочитанных сообщений. Друг моей подруги / L'ami de mon amie (Эрик Ромер / Eric Rohmer) [1987г., Франция, драма, мелодрама, комедия, BDRip] MVO

Alfredovich

3 | 0

1.45 ГБ


Начать новую тему Ответить на тему  [ 1 сообщение ] 




Для Мосгорсуда, Роскомнадзора и рекламодателей:: mosgorsud-torrent[собачка]yandex.ru