Торрент файл
скачать торрент магнет ссылка Добавлен: 08 окт 2012, 17:24
Размер: 2.19 ГБ
Сидеров: 13
Личеров: 3
Статус: (Aleksandr.ru)
Автор

СообщениеДобавлено: 08 окт 2012, 17:24 

Не в сети
Супермодератор
Аватара пользователя
Дата регистрации:
22 май 2010, 12:40
Спасибо: 2157 / 98
Сообщения: 2956
Откуда: Н.Новгород


Информация о фильме

Название: Мадагаскар 3
Оригинальное название: Madagascar 3: Europe's Most Wanted
Год выхода: 2012
Жанр:мультфильм
Режиссер: Эрик Дарнелл, Том МакГрат, Конрад Вернон
В ролях: Бен Стиллер, Крис Рок, Дэвид Швиммер, Джада Пинкетт Смит, Саша Барон Коэн, Седрик Развлекатель, Энди Рихтер, Том МакГрат, Фрэнсис МакДорманд, Джессика Честейн

Сюжет фильма: Лев Алекс, зебра Марти, гиппопотамиха Глория и жираф Мелман, а также король Джулиан, Морис, Морт и Пингвины все еще пытаются вернуться в Нью-Йорк. На этот раз их путь пройдет через Европу, где они откроют свой цирк.

Продолжительность: 01:33:24
Перевод: Профессиональный (полное дублирование) [Чистый звук]
Выпущено: DreamWorks Animation, Pacific Data Images (США)

Файл
Качество: BDRip [720p]
Видео: 1280x720, 2905 Кбит/сек, 23,976 кадр/сек, AVC, x264, 16:9, 0.131 Бит/[Пиксели*Кадры], 2pass
Аудио: AC-3, 448 Кбит/сек, 6 канала(ов), 48,0 КГц
Размер: 2,19 ГБ

Бюджет Фильма: $145 000 000
Кассовые сборы: $667 132 292







Общее
Уникальный идентификатор: 200392489435839597293386687399897997064 (0x96C23089DA83ECE1996ECAC0159E1F08)
Полное имя: E:ЗагрузкиMadagascar.3.Europe's.Most.Wanted.2012.x264.BDRip.720p.DUB.mkv
Формат: Matroska
Версия формата: Version 2
Размер файла: 2,19 Гбайт
Продолжительность: 1 ч. 33 м.
Общий поток: 3354 Кбит/сек
Дата кодирования: UTC 2012-10-07 17:04:57
Программа кодирования: mkvmerge v5.5.0 ('Healer') built on Apr6 2012 21:43:24
Библиотека кодирования: libebml v1.2.3 + libmatroska v1.3.0

Видео
Идентификатор: 1
Формат: AVC
Формат/Информация: Advanced Video Codec
Профиль формата: High@L3.1
Параметр CABAC формата: Да
Параметр ReFrames формата: 4 кадра
Идентификатор кодека: V_MPEG4/ISO/AVC
Продолжительность: 1 ч. 33 м.
Битрейт: 2905 Кбит/сек
Ширина: 1280 пикселей
Высота: 720 пикселей
Соотношение сторон: 16:9
Частота кадров: 23,976 кадра/сек
Цветовое пространство: YUV
Субдискретизация насыщенности: 4:2:0
Битовая глубина: 8 бит
Тип развёртки: Прогрессивная
Бит/(Пиксели*Кадры): 0.131
Размер потока: 1,85 Гбайт (85%)
Заголовок: Мадагаскар 3
Библиотека кодирования: x264 core 128 r2216 198a7ea
Настройки программы: cabac=1 / ref=4 / deblock=1:0:0 / analyse=0x3:0x133 / me=hex / subme=7 / psy=1 / psy_rd=1.00:0.00 / mixed_ref=1 / me_range=16 / chroma_me=1 / trellis=1 / 8x8dct=1 / cqm=0 / deadzone=21,11 / fast_pskip=1 / chroma_qp_offset=-2 / threads=12 / lookahead_threads=2 / sliced_threads=0 / nr=0 / decimate=1 / interlaced=0 / bluray_compat=0 / constrained_intra=0 / bframes=3 / b_pyramid=2 / b_adapt=1 / b_bias=0 / direct=1 / weightb=1 / open_gop=0 / weightp=2 / keyint=240 / keyint_min=23 / scenecut=40 / intra_refresh=0 / rc_lookahead=40 / rc=2pass / mbtree=1 / bitrate=2905 / ratetol=1.0 / qcomp=0.60 / qpmin=10 / qpmax=51 / qpstep=4 / cplxblur=20.0 / qblur=0.5 / ip_ratio=1.40 / aq=1:1.00
Язык: English
Default: Да
Forced: Нет

Аудио
Идентификатор: 2
Формат: AC-3
Формат/Информация: Audio Coding 3
Расширение режима: CM (complete main)
Идентификатор кодека: A_AC3
Продолжительность: 1 ч. 33 м.
Вид битрейта: Постоянный
Битрейт: 448 Кбит/сек
Каналы: 6 каналов
Расположение каналов: Front: L C R, Side: L R, LFE
Частота: 48,0 КГц
Битовая глубина: 16 бит
Метод сжатия: С потерями
Размер потока: 299 Мбайт (13%)
Заголовок: Дубляж
Язык: Russian
Default: Да
Forced: Нет




реклама партнёра


Вернуться к началу
 Профиль Отправить личное сообщение  
 
   Похожие торренты   Автор   Торрент   Размер 
В этой теме нет новых непрочитанных сообщений. Требуется сосед / Roommate Wanted [триллер, 2015] BDRip 720p, Mvo

salma3

165 | 65

3.61 ГБ

В этой теме нет новых непрочитанных сообщений. Взять живым или мертвым / Wanted: Dead or Alive [боевик, триллер, драма, 1987] BDRip 720p, Mvo

salma3

34 | 8

4.36 ГБ

В этой теме нет новых непрочитанных сообщений. Пингвины Мадагаскара / Penguins of Madagascar (Эрик Дарнелл, Саймон Дж. Смит) [мультфильм, комедия, приключения, семейный, 2014] BDRip 720p, Dub+Sub [Лицензия]

Dracon

240 | 13

5.2 ГБ

В этой теме нет новых непрочитанных сообщений. Need For Speed: Most Wanted L.E. [Arcade, Racing, Cars, 3D, 2012] [RePack]

Sykre

22 | 5

3.89 ГБ

В этой теме нет новых непрочитанных сообщений. Need for Speed Most Wanted Limited Edition [Arcade, Racing (Cars), 3D, 2012] [RePack]

Sykre

124 | 8

2.88 ГБ

В этой теме нет новых непрочитанных сообщений. Самый опасный человек / A Most Wanted Man [триллер, 2014] BDRip 1080p, Dub [лицензия]

Dracon

6 | 2

12.11 ГБ

В этой теме нет новых непрочитанных сообщений. Взять живым или мертвым / Wanted: Dead or Alive [боевик, триллер, драма, 1987] BDRip, Mvo

salma3

66 | 29

1.45 ГБ


Начать новую тему Ответить на тему  [ 1 сообщение ] 




Для Мосгорсуда, Роскомнадзора и рекламодателей:: mosgorsud-torrent[собачка]yandex.ru