Торрент файл
скачать торрент магнет ссылка Добавлен: 07 окт 2012, 08:11
Размер: 4.66 ГБ
Сидеров: 7
Личеров: 3
Статус: (Aleksandr.ru)
Автор

СообщениеДобавлено: 07 окт 2012, 08:11 

Не в сети
Супермодератор
Аватара пользователя
Дата регистрации:
22 май 2010, 12:40
Спасибо: 2027 / 98
Сообщения: 2963
Откуда: Н.Новгород

Информация о фильме
Название: Мадагаскар 3
Оригинальное название: Madagascar 3: Europe's Most Wanted
Год выхода: 2012
Жанр: Мультфильм
Режиссер: Эрик Дарнелл, Том МакГрат, Конрад Вернон
В ролях: Бен Стиллер, Крис Рок, Дэвид Швиммер, Джада Пинкетт Смит, Саша Барон Коэн, Седрик «Развлекатель», Энди Рихтер, Фрэнсис МакДорманд, Брайан Крэнстон, Мартин Шорт

О фильме:
Лев Алекс, зебра Марти, жираф Мелман и бегемот Глория присоединяются к бродячему цирку, в надежде вернуться в Нью-Йорк.



Страна: США
Студия: DreamWorks Animation
Продолжительность: 01:33:25
Перевод: Дублированный [Чистый звук]

Файл
Кодек: AVC
Качество: BDRip 1080p
Видео: 1920x1080, 23.976 fps, 6.05 Mb/s
Аудио#1: 48 kHz, AC3 Dolby Digital, 6 ch, ~448 kbps [Русский]
Аудио#2: 48 kHz, AC3 Dolby Digital, 6 ch, ~640 kbps [English]
Субтитры: English

Семпл

General
Unique ID: 245537508238360230665856352819681501640 (0xB8B8CDD03BE6E50E8F75CEB9220921C8)
Complete name: F:Загрузки µTorrentMadagaskar.3.2012.D.BDRip.1080p.mkv
Format: Matroska
Format version: Version 2
File size: 4.66 GiB
Duration: 1h 33mn
Overall bit rate: 7 145 Kbps
Encoded date: UTC 2012-10-06 14:26:42
Writing application: mkvmerge v5.0.1 ('Es ist Sommer') built on Oct 24 2011 19:45:06
Writing library: libebml v1.2.2 + libmatroska v1.3.0

Video
ID: 1
Format: AVC
Format/Info: Advanced Video Codec
Format profile: High@L4.1
Format settings, CABAC: Yes
Format settings, ReFrames: 4 frames
Codec ID: V_MPEG4/ISO/AVC
Duration: 1h 33mn
Bit rate: 6 055 Kbps
Width: 1 920 pixels
Height: 1 080 pixels
Display aspect ratio: 16:9
Frame rate: 23.976 fps
Color space: YUV
Chroma subsampling: 4:2:0
Bit depth: 8 bits
Scan type: Progressive
Bits/(Pixel*Frame): 0.122
Stream size: 3.86 GiB (83%)
Writing library: x264 core 128 r2216 198a7ea
Encoding settings: cabac=1 / ref=4 / deblock=1:0:0 / analyse=0x3:0x133 / me=umh / subme=7 / psy=1 / psy_rd=1.00:0.00 / mixed_ref=1 / me_range=16 / chroma_me=1 / trellis=1 / 8x8dct=1 / cqm=0 / deadzone=21,11 / fast_pskip=0 / chroma_qp_offset=-2 / threads=12 / lookahead_threads=2 / sliced_threads=0 / nr=0 / decimate=1 / interlaced=0 / bluray_compat=0 / constrained_intra=0 / bframes=3 / b_pyramid=2 / b_adapt=1 / b_bias=0 / direct=1 / weightb=1 / open_gop=0 / weightp=2 / keyint=250 / keyint_min=23 / scenecut=40 / intra_refresh=0 / rc_lookahead=40 / rc=2pass / mbtree=1 / bitrate=6055 / ratetol=1.0 / qcomp=0.60 / qpmin=0 / qpmax=69 / qpstep=4 / cplxblur=20.0 / qblur=0.5 / ip_ratio=1.40 / aq=1:1.00
Language: English
Default: Yes
Forced: No

Audio #1
ID: 2
Format: AC-3
Format/Info: Audio Coding 3
Mode extension: CM (complete main)
Format settings, Endianness: Big
Codec ID: A_AC3
Duration: 1h 33mn
Bit rate mode: Constant
Bit rate: 448 Kbps
Channel(s): 6 channels
Channel positions: Front: L C R, Side: L R, LFE
Sampling rate: 48.0 KHz
Bit depth: 16 bits
Compression mode: Lossy
Stream size: 299 MiB (6%)
Language: Russian
Default: Yes
Forced: No

Audio #2
ID: 3
Format: AC-3
Format/Info: Audio Coding 3
Mode extension: CM (complete main)
Format settings, Endianness: Big
Codec ID: A_AC3
Duration: 1h 33mn
Bit rate mode: Constant
Bit rate: 640 Kbps
Channel(s): 6 channels
Channel positions: Front: L C R, Side: L R, LFE
Sampling rate: 48.0 KHz
Bit depth: 16 bits
Compression mode: Lossy
Stream size: 428 MiB (9%)
Language: English
Default: No
Forced: No

Text #1
ID: 4
Format: UTF-8
Codec ID: S_TEXT/UTF8
Codec ID/Info: UTF-8 Plain Text
Language: English
Default: No
Forced: No

Text #2
ID: 5
Format: UTF-8
Codec ID: S_TEXT/UTF8
Codec ID/Info: UTF-8 Plain Text
Language: English
Default: No
Forced: No





реклама партнёра


Вернуться к началу
 Профиль Отправить личное сообщение  
 
   Похожие торренты   Автор   Торрент   Размер 
В этой теме нет новых непрочитанных сообщений. Пингвины Мадагаскара / Penguins of Madagascar [мультфильм, комедия, приключения, семейный, 2014] WEBRip 1080p, dub [Чистый звук]

Dracon

358 | 5

3.25 ГБ

В этой теме нет новых непрочитанных сообщений. Самый опасный человек / A Most Wanted Man [триллер, 2014] BDRip 1080p, dub [Чистый звук]

Dracon

1 | 2

10.32 ГБ

В этой теме нет новых непрочитанных сообщений. Пингвины Мадагаскара / Penguins of Madagascar [мультфильм, комедия, приключения, семейный, 2014] WEBRip, dub [Чистый звук]

Dracon

18118 | 644

1.37 ГБ

В этой теме нет новых непрочитанных сообщений. Самый опасный человек / A Most Wanted Man [триллер, 2014] BDRemux 1080p, dub [Чистый звук]

Dracon

5 | 2

29.16 ГБ

В этой теме нет новых непрочитанных сообщений. Самый опасный человек / A Most Wanted Man [триллер, 2014] BDRip 720p, dub [Чистый звук]

Dracon

11 | 2

5.77 ГБ

В этой теме нет новых непрочитанных сообщений. Рио 2 / Rio 2 [Мультфильм, комедия, приключения, семейный, 2014] BDRip 1080p, dub [Чистый звук]

Dracon

274 | 6

8.19 ГБ

В этой теме нет новых непрочитанных сообщений. Аисты / Storks [мультфильм, фэнтези, комедия, приключения, семейный, 2016] BDRip 1080p, Dub [чистый звук]

salma3

1740 | 336

6.67 ГБ


Начать новую тему Ответить на тему  [ 1 сообщение ] 




Для Мосгорсуда, Роскомнадзора и рекламодателей:: mosgorsud-torrent[собачка]yandex.ru