Торрент файл
скачать торрент магнет ссылка Добавлен: 24 сен 2012, 22:01
Размер: 7.92 ГБ
Сидеров: 9
Личеров: 9
Автор

СообщениеДобавлено: 24 сен 2012, 22:01 

Не в сети
Супермодератор
Аватара пользователя
Дата регистрации:
15 фев 2012, 16:44
Возраст: 27
Спасибо: 5949 / 2114
Сообщения: 28285
Саладин / Saladin: The Animated Series

Перевод: Профессиональный (полное дублирование), cубтитры: отсутствуют
Формат: SATRip, AVI, Другой MPEG4, MP3
Страна: Малайзия
Режиссер: Назих Хатен, Стив Бристов
Жанр: Приключения, мультфильм,
Продолжительность: 26 ~ 00:24:00
Год выпуска: 2004

Описание: На родной город Саладина Дамаск нападает армия врагов. Он еще мал, но уже хочет встать на защиту своих соотечественников, поэтому берет с собой своего лучшего друга Тарека и вместе они отправляются воевать. Этот опыт поспособствовал будущему мальчика: через 10 лет Саладин вырос легендарным героем и отправился в неизведанные дали и на неведомые земли — в поисках новых приключений.

Видео: MPEG-4 Visual(DivX 5), 720x384, 25.000 fps,1 499 Kbps
Аудио: MPEG Audio (MP3), 48.0 KHz, 2 channels, 192 Kbps

Общее
Полное имя: F:\Мультфильмы\Саладин\01.Rising Star.avi
Формат: AVI
Формат/Информация: Audio Video Interleave
Размер файла: 316 Мбайт
Продолжительность: 25 м.
Общий поток: 1701 Кбит/сек
Библиотека кодирования: VirtualDub build 32842/release
Видео
Идентификатор: 0
Формат: MPEG-4 Visual
Параметр BVOP формата: 1
Параметр QPel формата: Нет
Параметр GMC формата: Без точки перехода
Параметр матрицы формата: Default (H.263)
Режим смешивания: Сжатый битовый поток
Идентификатор кодека: DX50
Идентификатор кодека/Подсказка: DivX 5
Продолжительность: 25 м.
Битрейт: 1499 Кбит/сек
Ширина: 720 пикс.
Высота: 384 пикс.
Соотношение сторон: 1,875
Частота кадров: 25,000 кадр/сек
Цветовое пространство: YUV
Подвыборка цветности: 4:2:0
Битовая глубина: 8 бит
Тип развёртки: Прогрессивная
Метод сжатия: С потерями
Бит/(Пиксели*Кадры): 0.217
Размер потока: 279 Мбайт (88%)
Библиотека кодирования: DivX 6.8.5 (UTC 2009-08-20)
Аудио
Идентификатор: 1
Формат: MPEG Audio
Версия формата: Version 1
Профиль формата: Layer 3
Режим: Joint stereo
Идентификатор кодека: 55
Идентификатор кодека/Подсказка: MP3
Продолжительность: 25 м.
Вид битрейта: Постоянный
Битрейт: 192 Кбит/сек
Канал(ы): 2 канала(ов)
Частота: 48,0 КГц
Метод сжатия: С потерями
Размер потока: 35,7 Мбайт (11%)
Выравнивание: Разделение по промежуткам
Продолжительность промежутка: 40мс. (1,00 видеокадр)
Время предзагрузки промежутка: 500 ms









реклама партнёра


Вернуться к началу
 Профиль Отправить личное сообщение  
 
   Похожие торренты   Автор   Торрент   Размер 
В этой теме нет новых непрочитанных сообщений. Лемони Сникет: 33 несчастья (1 сезон: 1-8 серии из 8) / A Series of Unfortunate Events [2017, Драма, приключения, семейный] WEBRip [Jaskier]

Dracon

96 | 147

5.13 ГБ

В этой теме нет новых непрочитанных сообщений. Лентяево / LazyTown / 1-3 сезон 1-79 серии из 79 [комедия, приключения, семейный, спорт, музыка, 2004–2013] SATRip, Dub [Карусель]

salma3

18 | 35

17.78 ГБ

В этой теме нет новых непрочитанных сообщений. Непослушные родители / Still Standing / 3 сезон: 1-23 серии из 23 [ситком, 2003-2004] SATRip, Dub

salma3

14 | 5

4.59 ГБ

В этой теме нет новых непрочитанных сообщений. Непослушные родители / Still Standing / 2 сезон: 1-23 серии из 23 [ситком, 2003-2004] SATRip, Dub

salma3

10 | 5

4.7 ГБ

В этой теме нет новых непрочитанных сообщений. Игги Арбакл / / Arbuckle / 1 сезон: 1-52 серии из 52 [мультфильм, комедия, приключения, 2007] DVDRip, Dub

salma3

2 | 15

6.95 ГБ

В этой теме нет новых непрочитанных сообщений. 7 гномов / The 7D / 1 сезон: 1-47 серии из 47 [мультфильм, фэнтези, комедия, семейный, 2014] SATRip, Dub

salma3

23 | 12

9.02 ГБ

В этой теме нет новых непрочитанных сообщений. Доктор Плюшева / Doc McStuffins / 2 сезон: 1-26 серии из 26 [мультфильм, 2013-2014] SATRip, Dub

salma3

208 | 37

7.12 ГБ


Начать новую тему Ответить на тему  [ 1 сообщение ] 




Для Мосгорсуда, Роскомнадзора и рекламодателей:: mosgorsud-torrent[собачка]yandex.ru