Торрент файл
скачать торрент магнет ссылка Добавлен: 17 сен 2012, 09:55
Размер: 4.37 ГБ
Сидеров: 45
Личеров: 10
Статус: (Dracon)
Автор

СообщениеДобавлено: 17 сен 2012, 09:55 

Не в сети
Зам. Админа
Аватара пользователя
Дата регистрации:
02 дек 2010, 12:39
Спасибо: 12623 / 214
Сообщения: 28012
Страна: Россия
Год выпуска: 2011-2012

Жанр:мультфильм, детский
Продолжительность: 45 серий ~ 5 минут

Оригинальная аудиодорожка: Русский
Субтитры: нет

Режиссер: Екатерина Салабай

Описание: Мама, папа и… пятеро щенят. У Барбоскиных все, как у людей. Папа свободное время проводит за компьютером, дочери увлекаются модой и слушают Жанну Киску, а сыновья играют в футбол и мечтают о Нобелевской премии.....





Исходник: DVD5 R5
Тип релиза: DVDRip
Контейнер: AVI

Видео: 720х544, 688x528 (4:3), 25 fps, XviD MPEG-4 ~ 2315 kbps avg, 0.255 bit/pixel
Аудио: 48 kHz, АС3, 2 ch, 192.00 kbps

MediaInfo для 720х544
Общее
Полное имя: Barboskiny.2011Barboskiny.2011.O.DVDRipBarboskiny.4�1.avi
Формат: AVI
Формат/Информация: Audio Video Interleave
Размер файла: 97,2 Мбайт
Продолжительность: 5 м. 28 с.
Общий поток: 2486 Кбит/сек
Программа кодирования: VirtualDubModRus 1.5.10.2 (build 2542/release)
Библиотека кодирования: VirtualDubMod build 2542/release

Видео
Идентификатор: 0
Формат: MPEG-4 Visual
Профиль формата: Advanced Simple@L5
Параметр BVOP формата: 1
Параметр QPel формата: Нет
Параметр GMC формата: Без точки перехода
Параметр матрицы формата: Выборочная
Идентификатор кодека: XVID
Идентификатор кодека/Подсказка: XviD
Продолжительность: 5 м. 28 с.
Битрейт: 2285 Кбит/сек
Ширина: 720 пикселей
Высота: 544 пикселя
Соотношение сторон: 4:3
Частота кадров: 25,000 кадров/сек
Цветовое пространство: YUV
Субдискретизация насыщенности: 4:2:0
Битовая глубина: 8 бит
Тип развёртки: Прогрессивная
Метод сжатия: С потерями
Бит/(Пиксели*Кадры): 0.233
Размер потока: 89,3 Мбайт (92%)
Библиотека кодирования: XviD 65

Аудио
Идентификатор: 1
Формат: AC-3
Формат/Информация: Audio Coding 3
Расширение режима: CM (complete main)
Идентификатор кодека: 2000
Продолжительность: 5 м. 27 с.
Вид битрейта: Постоянный
Битрейт: 192 Кбит/сек
Каналы: 2 канала
Расположение каналов: Front: L R
Частота: 48,0 КГц
Битовая глубина: 16 бит
Метод сжатия: С потерями
Размер потока: 7,51 Мбайт (8%)
Выравнивание: Разделение по промежуткам
Продолжительность промежутка: 40мс. (1,00 видеокадр)
Время предзагрузки промежутка: 500мс

MediaInfo для 688х528
Общее
Полное имя : Barboskiny.1�1.avi
Формат : AVI
Формат/Информация : Audio Video Interleave
Размер файла : 101 Мбайт
Продолжительность : 5 м. 36 с.
Общий поток : 2517 Кбит/сек
Программа кодирования : VirtualDubMod 1.5.10.3 (build 2550/release)
Библиотека кодирования : VirtualDubMod build 2550/release

Видео
Идентификатор : 0
Формат : MPEG-4 Visual
Профиль формата : Advanced Simple@L5
Параметр BVOP формата : 1
Параметр QPel формата : Нет
Параметр GMC формата : Без точки перехода
Параметр матрицы формата : Выборочная
Идентификатор кодека : XVID
Идентификатор кодека/Подсказка : XviD
Продолжительность : 5 м. 36 с.
Битрейт : 2315 Кбит/сек
Ширина : 688 пикселей
Высота : 528 пикселей
Соотношение сторон : 4:3
Частота кадров : 25,000 кадров/сек
Цветовое пространство : YUV
Субдискретизация насыщенности : 4:2:0
Битовая глубина : 8 бит
Тип развёртки : Прогрессивная
Метод сжатия : С потерями
Бит/(Пиксели*Кадры) : 0.255
Размер потока : 92,9 Мбайт (92%)
Библиотека кодирования : XviD 1.2.1 (UTC 2008-12-04)

Аудио
Идентификатор : 1
Формат : AC-3
Формат/Информация : Audio Coding 3
Расширение режима : CM (complete main)
Идентификатор кодека : 2000
Продолжительность : 5 м. 36 с.
Вид битрейта : Постоянный
Битрейт : 192 Кбит/сек
Каналы : 2 канала
Расположение каналов : Front: L R
Частота : 48,0 КГц
Битовая глубина : 16 бит
Метод сжатия : С потерями
Размер потока : 7,71 Мбайт (8%)
Выравнивание : Разделение по промежуткам
Продолжительность промежутка : 40 мс. (1,00 видеокадр)
Время предзагрузки промежутка : 500 мс.

01. Пчёлка
02. Опять двойка
03. Межгалактическое сообщество
04. Матч
05. Тест на прочность
06. Перевоспитатели
07. Развитие таланта
08. Спокойной ночи
09. Нобелевская премия
10. Миротворец
11. Первое место
12. Незаменимый Дружок
13. Гончий пес
14. Кто красивее
15. Во всём виноват зайка
16. Шнурок
17. Право голоса
18. Лучший подарок
19. Ку-ка-ре-ку
20. Пульт
21. Игры разума
22. Держи себя в руках
23. Побочный эффект
24. Самый лучший
25. Конфетка Правды
26. Колыбельная для дружка
27. Рыжая
28. Шкатулка с секретом
29. Совсем как Жанна Киска
30. Ночь независимости
31. Принц
32. Пропеллер
33. Сама невинность
34. Опыт общения
35. Безотказный
36. Розыгрыш
37. Ни капельки не страшно
38. Мнение окружающих
39. Срочный ремонт
40. Вознаграждение
41. Двойной дружок
42. Военная тайна
43. Зеленый гоблин
44. Сальмаганди
45. Как стать Львом Яшей




Раздача от:




реклама партнёра


Вернуться к началу
 Профиль  
 
   Похожие торренты   Автор   Торрент   Размер 
В этой теме нет новых непрочитанных сообщений. Барбоскины [001-170] (мультфильм, детский, семейный, 2011-2016) WEB-DLRip 720p от ExKinoRay

marya111

23 | 34

10.16 ГБ

В этой теме нет новых непрочитанных сообщений. Фиксики: Любимые серии... (2012) [2012, мультфильм, детский] (Васико Бедошвили)

marya111

0 | 2

36.44 ГБ

В этой теме нет новых непрочитанных сообщений. Место на метле / Room on the Broom (Ян Лачауэр, Макс Лэнг) [2012, мультфильм, короткометражка, BDRip 1080p]

Nickolas3435

116 | 12

1.38 ГБ

В этой теме нет новых непрочитанных сообщений. Первое свидание Райли (мультфильм, короткометражка, мелодрама, комедия, семейный, 2015) BDRip 720p | D

marya111

95 | 12

185.77 МБ

В этой теме нет новых непрочитанных сообщений. Место преступления: Майами / CSI: Miami [S08-10] [Детектив, драма, криминал, 2009-2012] WEBDLRip, Avo [КПК]

salma3

8 | 15

17.36 ГБ

В этой теме нет новых непрочитанных сообщений. Место в космосе / A Place in Space (Фредерик Компейн, Серж Брунье) [2012, документальный, SATRip-AVC] VO

salma3

0 | 1

736.92 МБ

В этой теме нет новых непрочитанных сообщений. Большой собачий побег / Ozzy [Мультфильм, детский, семейный, 2016] BDRip-AVC, Dub [Лицензия]

salma3

491 | 61

1.46 ГБ


Начать новую тему Ответить на тему  [ 1 сообщение ] 




Для Мосгорсуда, Роскомнадзора и рекламодателей:: mosgorsud-torrent[собачка]yandex.ru