Торрент файл
скачать торрент магнет ссылка Добавлен: 09 сен 2012, 09:06
Размер: 2.92 ГБ
Сидеров: 47
Личеров: 7
Статус: (Dracon)
Автор

СообщениеДобавлено: 09 сен 2012, 09:06 

Не в сети
Зам. Админа
Аватара пользователя
Дата регистрации:
02 дек 2010, 12:39
Спасибо: 12461 / 214
Сообщения: 27968

Страна: Россия
Год выпуска: 2011

Жанр:мультфильм, детский
Продолжительность: 30 серий ~ 5 минут (02:46:03)

Оригинальная аудиодорожка: Русский
Субтитры: нет

Режиссер: Екатерина Салабай

Описание: Мама, папа и… пятеро щенят. У Барбоскиных все, как у людей. Папа свободное время проводит за компьютером, дочери увлекаются модой и слушают Жанну Киску, а сыновья играют в футбол и мечтают о Нобелевской премии.....





Тип релиза: DVDRip-AVC
Исходник: DVD5 R5
Контейнер: MKV

Видео: 720x576 -> 768х576 (4:3), 25 fps, H264 ~ 2318 kbps avg, 0.224 bit/pixel

Аудио: 48 kHz, AC3, 2 ch, 192.00 kbps

Общее
Полное имя: Barboskiny.2011Barboskin.vypusk.1.2011.DVDRip-AVC.mkv
Формат: Matroska
Версия формата: Version 2
Размер файла: 1,46 Гбайт
Продолжительность: 1 ч. 23 м.
Общий поток: 2509 Кбит/сек
Название фильма: Barboskin.vypusk.1.2011.DVDRip-AVC
Дата кодирования: UTC 2012-02-02 18:39:52
Программа кодирования: mkvmerge v5.2.0 ('I can't explain') built on Dec 18 2011 18:12:03
Библиотека кодирования: libebml v1.2.3 + libmatroska v1.3.0

Видео
Идентификатор: 1
Формат: AVC
Формат/Информация: Advanced Video Codec
Профиль формата: High@L4.1
Параметр CABAC формата: Да
Параметр ReFrames формата: 6 кадров
Идентификатор кодека: V_MPEG4/ISO/AVC
Продолжительность: 1 ч. 23 м.
Битрейт: 2315 Кбит/сек
Ширина: 720 пикселей
Высота: 576 пикселей
Соотношение сторон: 4:3
Соотношение сторон в оригинале: 4:3
Частота кадров: 25,000 кадров/сек
Стандарт вещания: PAL
Цветовое пространство: YUV
Субдискретизация насыщенности: 4:2:0
Битовая глубина: 8 бит
Тип развёртки: Прогрессивная
Бит/(Пиксели*Кадры): 0.223
Размер потока: 1,32 Гбайт (90%)
Заголовок: Источник DVD
Библиотека кодирования: x264 core 119 r2106 07efeb4
Настройки программы: cabac=1 / ref=6 / deblock=1:-2:-1 / analyse=0x3:0x113 / me=umh / subme=6 / psy=1 / psy_rd=1.00:0.10 / mixed_ref=1 / me_range=32 / chroma_me=1 / trellis=1 / 8x8dct=1 / cqm=0 / deadzone=21,11 / fast_pskip=1 / chroma_qp_offset=-3 / threads=3 / sliced_threads=0 / nr=0 / decimate=1 / interlaced=0 / bluray_compat=0 / constrained_intra=0 / bframes=6 / b_pyramid=2 / b_adapt=1 / b_bias=0 / direct=3 / weightb=1 / open_gop=0 / weightp=0 / keyint=250 / keyint_min=25 / scenecut=40 / intra_refresh=0 / rc_lookahead=60 / rc=2pass / mbtree=1 / bitrate=2315 / ratetol=1.0 / qcomp=0.60 / qpmin=0 / qpmax=69 / qpstep=4 / cplxblur=20.0 / qblur=0.5 / ip_ratio=1.40 / aq=1:1.00
Язык: Russian
Default: Да
Forced: Нет

Аудио
Идентификатор: 2
Формат: AC-3
Формат/Информация: Audio Coding 3
Расширение режима: CM (complete main)
Идентификатор кодека: A_AC3
Продолжительность: 1 ч. 23 м.
Вид битрейта: Постоянный
Битрейт: 192 Кбит/сек
Каналы: 2 канала
Расположение каналов: Front: L R
Частота: 48,0 КГц
Битовая глубина: 16 бит
Метод сжатия: С потерями
Размер потока: 114 Мбайт (8%)
Заголовок: Источник DVD
Язык: Russian
Default: Да
Forced: Нет

Меню
00:00:00.000: ru:00:00:00.000000000
00:05:00.000: :00:05:00.000000000
00:10:00.000: :00:10:00.000000000
00:15:00.000: :00:15:00.000000000
00:20:00.000: :00:20:00.000000000
00:25:00.000: :00:25:00.000000000
00:30:00.000: :00:30:00.000000000
00:35:00.000: :00:35:00.000000000
00:40:00.000: :00:40:00.000000000
00:45:00.000: :00:45:00.000000000
00:50:00.000: :00:50:00.000000000
00:55:00.000: :00:55:00.000000000
01:00:00.000: :01:00:00.000000000
01:05:00.000: :01:05:00.000000000
01:10:00.000: :01:10:00.000000000
01:15:00.000: :01:15:00.000000000
01:20:00.000: :01:20:00.000000000
01. Пчёлка
02. Опять двойка
03. Межгалактическое сообщество
04. Матч
05. Тест на прочность
06. Перевоспитатели
07. Развитие таланта
08. Спокойной ночи
09. Нобелевская премия
10. Миротворец
11. Первое место
12. Незаменимый Дружок
13. Гончий пес
14. Кто красивее
15. Во всём виноват зайка
16. Шнурок
17. Право голоса
18. Лучший подарок
19. Ку-ка-ре-ку
20. Пульт
21. Игры разума
22. Держи себя в руках
23. Побочный эффект
24. Самый лучший
25. Конфетка Правды
26. Колыбельная для дружка
27. Рыжая
28. Шкатулка с секретом
29. Совсем как Жанна Киска
30. Ночь независимости




Раздача от:




реклама партнёра


Вернуться к началу
 Профиль  
 
   Похожие торренты   Автор   Торрент   Размер 
В этой теме нет новых непрочитанных сообщений. Подарок на Рождество / Jingle All The Way [Детский, комедия, семейный, 1996] DVD5, Mvo [Лицензия]

salma3

21 | 7

4.24 ГБ

В этой теме нет новых непрочитанных сообщений. Первое свидание Райли (мультфильм, короткометражка, мелодрама, комедия, семейный, 2015) BDRip 720p | D

marya111

95 | 12

185.77 МБ

В этой теме нет новых непрочитанных сообщений. Место на метле / Room on the Broom (Ян Лачауэр, Макс Лэнг) [2012, мультфильм, короткометражка, BDRip 1080p]

Nickolas3435

116 | 12

1.38 ГБ

В этой теме нет новых непрочитанных сообщений. Олли и сокровища пиратов / Dive Olly Dive and the Pirate Treasure [мультфильм, семейный, детский, 2014] DVDRip, Dub [лицензия]

Dracon

767 | 24

1.46 ГБ

В этой теме нет новых непрочитанных сообщений. Вадим Галыгин и Леприконсы - Подарок [2011, Rock, Pop, MP3]

PriZraK

4 | 2

123.45 МБ

В этой теме нет новых непрочитанных сообщений. Чебурашка / Cheburashka [Мультфильм, детский, семейный, 2014] WEBRip

Dracon

250 | 7

697.83 МБ

В этой теме нет новых непрочитанных сообщений. Летающие звери [S01] [мультфильм, короткометражка, детский, 2012] DVD5 [Лицензия]

Ανδρέας

7 | 5

2.85 ГБ


Начать новую тему Ответить на тему  [ 1 сообщение ] 




Для Мосгорсуда, Роскомнадзора и рекламодателей:: mosgorsud-torrent[собачка]yandex.ru