Торрент файл
скачать торрент магнет ссылка Добавлен: 03 сен 2012, 10:45
Размер: 2.18 ГБ
Сидеров: 24
Личеров: 5
Статус: (drink)
Автор

СообщениеДобавлено: 03 сен 2012, 10:45 

Не в сети
3 Звезды
Аватара пользователя
Дата регистрации:
02 сен 2012, 20:44
Спасибо: 97 / 0
Сообщения: 80


Пираты! Банда неудачников / The Pirates! Band of Misfits
Год выхода: 2012
Жанр:мультфильм, комедия, приключения, семейный
Выпущено: США, Великобритания
Продолжительность: 01:28:05
Перевод: Дублированный

Режиссер: Питер Лорд, Джефф Ньюитт
В ролях: Хью Грант, Мартин Фриман, Имелда Стонтон, Дэвид Теннант, Джереми Пивен, Сальма Хайек, Ленни Генри, Брайан Блессид, Антон Ельчин, Брендан Глисон

О фильме

Экранизация первой книги из серии романов писателя Гидеона Дефо, рассказывающих о банде незадачливых пиратов. В первой части пираты прибывают в Лондон, где знакомятся с молодым Чарльзом Дарвином и говорящим шимпанзе по имени Мистер Бобо, а также столкнутся с врагами, которые хотят их уничтожить.






Качество: BDRip 720p (исходник Blu-ray Disc)
Видео: 1280x544, 2899 Кбит/сек, 23.976 кадр/сек, AVC, x264, 2:35, 0.174 Бит/(Пиксели*Кадры)
Аудио: AC-3, 640 Кбит/сек, 6 канала(ов), 48,0 КГц
Чаптеры: Есть
Размер: 2.17 гб

Format: Matroska
Format version: Version 2
File size: 2.18 GiB
Duration: 1h 28mn
Overall bit rate: 3 543 Kbps
Movie name: Rip by mitrian (NOLIMITS-TEAM.RU)
Encoded date: UTC 2012-09-01 18:00:51
Writing application: mkvmerge v5.7.0 ('The Whirlwind') built on Jul8 2012 20:08:51
Writing library: libebml v1.2.3 + libmatroska v1.3.0

Video
ID: 1
Format: AVC
Format/Info: Advanced Video Codec
Format profile: High@L4.1
Format settings, CABAC: Yes
Format settings, ReFrames: 12 frames
Codec ID: V_MPEG4/ISO/AVC
Duration: 1h 28mn
Bit rate: 2 899 Kbps
Width: 1 280 pixels
Height: 544 pixels
Display aspect ratio: 2.35:1
Original display aspect ratio: 2.35:1
Frame rate: 23.976 fps
Color space: YUV
Chroma subsampling: 4:2:0
Bit depth: 8 bits
Scan type: Progressive
Bits/(Pixel*Frame): 0.174
Stream size: 1.74 GiB (80%)
Title: Пираты! Банда неудачников (2012) BDRip 720p от NOLIMITS-TEAM
Writing library: x264 core 125 r2208 d9d2288
Encoding settings: cabac=1 / ref=12 / deblock=1:0:0 / analyse=0x3:0x113 / me=umh / subme=10 / psy=1 / psy_rd=1.00:0.10 / mixed_ref=1 / me_range=32 / chroma_me=1 / trellis=2 / 8x8dct=1 / cqm=0 / deadzone=21,11 / fast_pskip=0 / chroma_qp_offset=-3 / threads=6 / lookahead_threads=1 / sliced_threads=0 / slices=4 / nr=0 / decimate=0 / interlaced=0 / bluray_compat=0 / constrained_intra=0 / bframes=5 / b_pyramid=2 / b_adapt=2 / b_bias=0 / direct=3 / weightb=1 / open_gop=0 / weightp=2 / keyint=240 / keyint_min=24 / scenecut=40 / intra_refresh=0 / rc_lookahead=60 / rc=2pass / mbtree=1 / bitrate=2899 / ratetol=2.0 / qcomp=0.60 / qpmin=0 / qpmax=51 / qpstep=4 / cplxblur=20.0 / qblur=0.5 / ip_ratio=1.40 / aq=1:1.00
Language: English
Default: Yes
Forced: No

Audio
ID: 2
Format: AC-3
Format/Info: Audio Coding 3
Mode extension: CM (complete main)
Format settings, Endianness: Big
Codec ID: A_AC3
Duration: 1h 28mn
Bit rate mode: Constant
Bit rate: 640 Kbps
Channel(s): 6 channels
Channel positions: Front: L C R, Side: L R, LFE
Sampling rate: 48.0 KHz
Bit depth: 16 bits
Compression mode: Lossy
Stream size: 403 MiB (18%)
Title: Русский
Default: Yes
Forced: No

Text
ID: 3
Format: UTF-8
Codec ID: S_TEXT/UTF8
Codec ID/Info: UTF-8 Plain Text
Default: Yes
Forced: Yes

Menu
00:00:00.000: en:00:00:00.000
00:09:00.000: en:00:09:00.000
00:19:00.000: en:00:19:00.000
00:32:00.000: en:00:32:00.000
00:39:00.000: en:00:39:00.000
00:49:00.000: en:00:49:00.000
00:59:00.000: en:00:59:00.000
01:08:00.000: en:01:08:00.000




реклама партнёра


Вернуться к началу
 Профиль Отправить личное сообщение  
 
   Похожие торренты   Автор   Торрент   Размер 
В этой теме нет новых непрочитанных сообщений. Ледовые пираты / The Ice Pirates [фантастика, боевик, комедия, приключения, 1984] BDRip-AVC, Mvo+Sub

salma3

150 | 12

2.05 ГБ

В этой теме нет новых непрочитанных сообщений. Пираты побережья / I pirati della costa / Les pirates de la côte / Pirates of the Coast [Приключения, 1960] DVDRip, Avo

salma3

93 | 31

1.5 ГБ

В этой теме нет новых непрочитанных сообщений. Пираты / Pirates / Hae-jeok: Ba-da-ro gan san-jeok (Сок Хун Ли) [2014, история, комедия, приключения, HDTVRip 720p] dvo

Nickolas3435

1214 | 95

3.77 ГБ

В этой теме нет новых непрочитанных сообщений. Банда грабителей / Band of Robbers [Триллер, комедия, криминал, приключения, 2015] WEB-DLRip, avo

Dracon

2040 | 54

1.44 ГБ

В этой теме нет новых непрочитанных сообщений. Пираты / Pirates / Hae-jeok: Ba-da-ro gan san-jeok (Сок Хун Ли) [история, комедия, приключения, 2014] HDRip, dvo [GREEN TEA]

Dracon

1026 | 23

1.46 ГБ

В этой теме нет новых непрочитанных сообщений. Пираты / Pirates / Hae-jeok: Ba-da-ro gan san-jeok [история, комедия, приключения, 2014] HDRip, dvo [GREEN TEA]

Dracon

568 | 13

2.19 ГБ

В этой теме нет новых непрочитанных сообщений. Белка и Стрелка: Лунные приключения [мультфильм, комедия, приключения, семейный, 2013] BDRip 720p | [Лицензия]

Dracon

430 | 13

2.91 ГБ


Начать новую тему Ответить на тему  [ 1 сообщение ] 




Для Мосгорсуда, Роскомнадзора и рекламодателей:: mosgorsud-torrent[собачка]yandex.ru