Торрент файл
скачать торрент магнет ссылка Добавлен: 25 авг 2012, 12:07
Размер: 5.76 ГБ
Сидеров: 300
Личеров: 23
Статус: (Dracon)
Автор

СообщениеДобавлено: 25 авг 2012, 12:07 

Не в сети
Зам. Админа
Аватара пользователя
Дата регистрации:
02 дек 2010, 12:39
Спасибо: 12458 / 214
Сообщения: 27968

Год выхода: 2012
Жанр: мультфильм, фантастика, боевик
Режиссер: Синдзи Арамаки
В ролях: Leraldo Anzaldua, Luci Christian, Melissa Davis, Justin Doran, David Matranga, Emily Neves, David Wald

О фильме: После того, как был покинут отдаленный форпост Федерации, Форт Кейси, Карл Дженкинс отправляется на разведку и исчезает в туманности. Закаленные во множественных боях солдаты могут своими действиями принести на Землю смерть человечества, а могут и наоборот его спасти. Третьего не дано.



Выпущено: Stage 6 Films
Продолжительность: 01:28:48
Перевод: Профессиональный (многоголосый, закадровый)

Кодек: x264
Качество: BDRip (источник: Blu-ray Disc)
Видео: 1920x1080 (16:9), 23.976 fps, 8389 kbps
Аудио #1: AC-3, 6 ch, 448 kbps (Rus)
Аудио #2: AC-3, 6 ch, 448 kbps (Eng)
Субтитры: Русские, Английские
Скачать: сэмпл


Общее
Уникальный идентификатор: 181853708234076997664541076249144339355 (0x88CFC00E5347623492E5C84467262B9B)
Полное имя: Starship.Troopers.Invasion.2012.BDRip.1080p.Rus.Eng.mkv
Формат: Matroska
Версия формата: Version 2
Размер файла: 5,76 Гбайт
Продолжительность: 1 ч. 28 м.
Общий поток: 9284 Кбит/сек
Название фильма: Звездный десант: Вторжение / Starship Troopers: Invasion (2012)
Дата кодирования: UTC 2012-08-24 23:33:19
Программа кодирования: mkvmerge v5.7.0 ('The Whirlwind') built on Jul8 2012 20:08:51
Библиотека кодирования: libebml v1.2.3 + libmatroska v1.3.0

Видео
Идентификатор: 1
Формат: AVC
Формат/Информация: Advanced Video Codec
Профиль формата: High@L4.1
Параметр CABAC формата: Да
Параметр ReFrames формата: 4 кадра
Идентификатор кодека: V_MPEG4/ISO/AVC
Продолжительность: 1 ч. 28 м.
Битрейт: 8389 Кбит/сек
Ширина: 1920 пикселей
Высота: 1080 пикселей
Соотношение сторон: 16:9
Частота кадров: 23,976 кадра/сек
Цветовое пространство: YUV
Субдискретизация насыщенности: 4:2:0
Битовая глубина: 8 бит
Тип развёртки: Прогрессивная
Бит/(Пиксели*Кадры): 0.169
Размер потока: 5,09 Гбайт (88%)
Заголовок: Release by AlexKa
Библиотека кодирования: x264 core 125 r2208 d9d2288
Настройки программы: cabac=1 / ref=4 / deblock=1:0:0 / analyse=0x3:0x133 / me=umh / subme=10 / psy=1 / psy_rd=1.00:0.10 / mixed_ref=1 / me_range=32 / chroma_me=1 / trellis=2 / 8x8dct=1 / cqm=0 / deadzone=21,11 / fast_pskip=0 / chroma_qp_offset=-3 / threads=12 / lookahead_threads=2 / sliced_threads=0 / nr=0 / decimate=0 / interlaced=0 / bluray_compat=0 / constrained_intra=0 / bframes=5 / b_pyramid=2 / b_adapt=2 / b_bias=0 / direct=3 / weightb=1 / open_gop=0 / weightp=2 / keyint=240 / keyint_min=23 / scenecut=40 / intra_refresh=0 / rc=2pass / mbtree=0 / bitrate=8389 / ratetol=1.0 / qcomp=0.60 / qpmin=0 / qpmax=69 / qpstep=4 / cplxblur=20.0 / qblur=0.5 / ip_ratio=1.40 / pb_ratio=1.30 / aq=1:0.80
Язык: Japanese

Аудио #1
Идентификатор: 2
Формат: AC-3
Формат/Информация: Audio Coding 3
Расширение режима: CM (complete main)
Идентификатор кодека: A_AC3
Продолжительность: 1 ч. 28 м.
Вид битрейта: Постоянный
Битрейт: 448 Кбит/сек
Каналы: 6 каналов
Расположение каналов: Front: L C R, Side: L R, LFE
Частота: 48,0 КГц
Битовая глубина: 16 бит
Метод сжатия: С потерями
Размер потока: 285 Мбайт (5%)
Заголовок: Rus
Язык: Russian

Аудио #2
Идентификатор: 3
Формат: AC-3
Формат/Информация: Audio Coding 3
Расширение режима: CM (complete main)
Идентификатор кодека: A_AC3
Продолжительность: 1 ч. 28 м.
Вид битрейта: Постоянный
Битрейт: 448 Кбит/сек
Каналы: 6 каналов
Расположение каналов: Front: L C R, Side: L R, LFE
Частота: 48,0 КГц
Битовая глубина: 16 бит
Метод сжатия: С потерями
Размер потока: 285 Мбайт (5%)
Заголовок: Eng
Язык: English

Текст #1
Идентификатор: 4
Формат: UTF-8
Идентификатор кодека: S_TEXT/UTF8
Идентификатор кодека/Информация: UTF-8 Plain Text
Заголовок: Rus
Язык: Russian

Текст #2
Идентификатор: 5
Формат: UTF-8
Идентификатор кодека: S_TEXT/UTF8
Идентификатор кодека/Информация: UTF-8 Plain Text
Заголовок: Eng
Язык: English

Меню
00:00:00.000: :Chapter 00
00:06:01.611: :Chapter 01
00:10:44.393: :Chapter 02
00:16:59.309: :Chapter 03
00:20:35.192: :Chapter 04
00:26:48.440: :Chapter 05
00:32:48.132: :Chapter 06
00:39:01.797: :Chapter 07
00:44:34.421: :Chapter 08
00:51:01.516: :Chapter 09
00:56:55.620: :Chapter 10
01:00:33.755: :Chapter 11
01:04:49.135: :Chapter 12
01:08:09.168: :Chapter 13
01:13:16.225: :Chapter 14
01:18:14.189: :Chapter 15




реклама партнёра


Вернуться к началу
 Профиль  
 
   Похожие торренты   Автор   Торрент   Размер 
В этой теме нет новых непрочитанных сообщений. Звездный десант 3: Мародер / Starship Troopers 3: Marauder [фантастика, боевик, приключения, 2008] BDRip 1080p, Mvo

salma3

38 | 5

11.64 ГБ

В этой теме нет новых непрочитанных сообщений. Звездный десант 3: Мародер / Starship Troopers 3: Marauder [фантастика, боевик, приключения, 2008] BDRip 720p, Mvo+SUB

salma3

73 | 8

5.52 ГБ

В этой теме нет новых непрочитанных сообщений. Вторжение в Розуэлл / Сдохни! / Invasion Roswell / Exterminators / Battle: Earth [фантастика, боевик, 2013] BDRip 1080p, Dvo

salma3

178 | 20

7.04 ГБ

В этой теме нет новых непрочитанных сообщений. Вторжение в США / Invasion U.S.A. [Боевик, 1985] BDRip 1080p, Mvo+Dvo+Avo+Sub

salma3

50 | 64

12.75 ГБ

В этой теме нет новых непрочитанных сообщений. Сдохни! / Вторжение в Росвелл / Invasion Roswell [фантастика, боевик, 2013] BDRip 720p, Mvo

Dracon

269 | 4

3.39 ГБ

В этой теме нет новых непрочитанных сообщений. Звездный крейсер: Восстание / Starship: Rising [Фантастика, Боевик, 2014] DVDRip, avo

Dracon

45 | 2

1.41 ГБ

В этой теме нет новых непрочитанных сообщений. Звёздный крейсер: Апокалипсис / Starship: Apocalypse [Фантастика, боевик, 2014] WEB-DLRip, Dvo

salma3

266 | 6

1.37 ГБ


Начать новую тему Ответить на тему  [ 1 сообщение ] 




Для Мосгорсуда, Роскомнадзора и рекламодателей:: mosgorsud-torrent[собачка]yandex.ru