Торрент файл
скачать торрент магнет ссылка Добавлен: 22 авг 2012, 11:53
Размер: 4.38 ГБ
Сидеров: 10
Личеров: 4
Статус: (Dracon)
Автор

СообщениеДобавлено: 22 авг 2012, 11:53 

Не в сети
Зам. Админа
Аватара пользователя
Дата регистрации:
02 дек 2010, 12:39
Спасибо: 12461 / 214
Сообщения: 27968

Год выхода: 2012
Жанр:мультфильм, комедия, приключения, семейный
Режиссер: Питер Лорд, Джефф Ньюитт
В ролях: Хью Грант, Мартин Фриман, Имелда Стонтон, Дэвид Теннант, Джереми Пивен, Сальма Хайек, Ленни Генри, Брайан Блессид, Антон Ельчин, Брендан Глисон

О фильме: Экранизация первой книги из серии романов писателя Гидеона Дефо, рассказывающих о банде незадачливых пиратов. В первой части пираты прибывают в Лондон, где знакомятся с молодым Чарльзом Дарвином и говорящим шимпанзе по имени Мистер Бобо, а также столкнутся с врагами, которые хотят их уничтожить.



Выпущено:США, Великобритания
Продолжительность: 01:28:05
Перевод: Дублированный + Оригинал

Кодек: x264
Качество: BDRip 1080p
Видео: 1920x816, 5828 Kbps, 23.976 fps
Аудио #1: AC-3, 6 ch, 640 kbps (Rus)
Аудио #2: AC-3, 6 ch, 640 kbps (Eng)
Субтитры: русские (форсированные), английские

Общее
Уникальный идентификатор: 223996786099383907982268506686152955897 (0xA88436372EEDE5478B6FD8BA816ED7F9)
Полное имя: Пираты! Банда неудачников.2012.BDRip.1080p.Rus.Eng.mkv
Формат: Matroska
Версия формата: Version 2
Размер файла: 4,38 Гбайт
Продолжительность: 1 ч. 28 м.
Общий поток: 7111 Кбит/сек
Название фильма: Пираты! Банда неудачников.2012
Дата кодирования: UTC 2012-08-22 06:37:58
Программа кодирования: mkvmerge v5.7.0 ('The Whirlwind') built on Aug7 2012 14:11:40
Библиотека кодирования: libebml v1.2.3 + libmatroska v1.3.0

Видео
Идентификатор: 1
Формат: AVC
Формат/Информация: Advanced Video Codec
Профиль формата: High@L4.1
Параметр CABAC формата: Да
Параметр ReFrames формата: 5 кадров
Идентификатор кодека: V_MPEG4/ISO/AVC
Битрейт: 5828 Кбит/сек
Ширина: 1920 пикселей
Высота: 816 пикселей
Соотношение сторон: 2,35:1
Режим частоты кадров: Переменный
Частота кадров в оригинале: 23,976 кадра/сек
Цветовое пространство: YUV
Субдискретизация насыщенности: 4:2:0
Битовая глубина: 8 бит
Тип развёртки: Прогрессивная
Бит/(Пиксели*Кадры): 0.155
Заголовок: Rip by Boriy
Библиотека кодирования: x264 core 125 r2208 d9d2288
Настройки программы: cabac=1 / ref=5 / deblock=1:0:0 / analyse=0x3:0x113 / me=umh / subme=10 / psy=1 / psy_rd=1.00:0.10 / mixed_ref=1 / me_range=32 / chroma_me=1 / trellis=2 / 8x8dct=1 / cqm=0 / deadzone=21,11 / fast_pskip=0 / chroma_qp_offset=-3 / threads=12 / lookahead_threads=2 / sliced_threads=0 / nr=0 / decimate=0 / interlaced=0 / bluray_compat=0 / constrained_intra=0 / bframes=5 / b_pyramid=2 / b_adapt=2 / b_bias=0 / direct=3 / weightb=1 / open_gop=0 / weightp=2 / keyint=240 / keyint_min=23 / scenecut=40 / intra_refresh=0 / rc_lookahead=60 / rc=2pass / mbtree=1 / bitrate=5828 / ratetol=1.0 / qcomp=0.60 / qpmin=0 / qpmax=69 / qpstep=4 / cplxblur=20.0 / qblur=0.5 / ip_ratio=1.40 / aq=1:1.00
Язык: English
Default: Да
Forced: Нет

Аудио #1
Идентификатор: 2
Формат: AC-3
Формат/Информация: Audio Coding 3
Расширение режима: CM (complete main)
Параметр Endianness формата: Big
Идентификатор кодека: A_AC3
Продолжительность: 1 ч. 28 м.
Вид битрейта: Постоянный
Битрейт: 640 Кбит/сек
Каналы: 6 каналов
Расположение каналов: Front: L C R, Side: L R, LFE
Частота: 48,0 КГц
Битовая глубина: 16 бит
Метод сжатия: С потерями
Размер потока: 403 Мбайт (9%)
Заголовок: Дубляж
Язык: Russian
Default: Да
Forced: Нет

Аудио #2
Идентификатор: 3
Формат: AC-3
Формат/Информация: Audio Coding 3
Расширение режима: CM (complete main)
Параметр Endianness формата: Big
Идентификатор кодека: A_AC3
Продолжительность: 1 ч. 28 м.
Вид битрейта: Постоянный
Битрейт: 640 Кбит/сек
Каналы: 6 каналов
Расположение каналов: Front: L C R, Side: L R, LFE
Частота: 48,0 КГц
Битовая глубина: 16 бит
Метод сжатия: С потерями
Размер потока: 403 Мбайт (9%)
Заголовок: Оригинал
Язык: English
Default: Нет
Forced: Нет

Текст #1
Идентификатор: 4
Формат: UTF-8
Идентификатор кодека: S_TEXT/UTF8
Идентификатор кодека/Информация: UTF-8 Plain Text
Заголовок: Forced
Язык: Russian
Default: Да
Forced: Да

Текст #2
Идентификатор: 5
Формат: UTF-8
Идентификатор кодека: S_TEXT/UTF8
Идентификатор кодека/Информация: UTF-8 Plain Text
Заголовок: Full
Язык: English
Default: Нет
Forced: Нет

Меню
00:00:00.000: :Chapter 1
00:08:36.682: :Chapter 2
00:15:11.660: :Chapter 3
00:20:30.437: :Chapter 4
00:27:04.706: :Chapter 5
00:33:06.985: :Chapter 6
00:37:23.491: :Chapter 7
00:42:03.437: :Chapter 8
00:47:26.009: :Chapter 9
00:51:54.194: :Chapter 10
00:56:39.521: :Chapter 11
01:01:08.206: :Chapter 12
01:07:10.484: :Chapter 13
01:11:52.182: :Chapter 14
01:16:21.285: :Chapter 15
01:19:15.667: :Chapter 16




реклама партнёра


Вернуться к началу
 Профиль  
 
   Похожие торренты   Автор   Торрент   Размер 
В этой теме нет новых непрочитанных сообщений. Ледовые пираты / The Ice Pirates [фантастика, боевик, комедия, приключения, 1984] BDRip-AVC, Mvo+Sub

salma3

150 | 12

2.05 ГБ

В этой теме нет новых непрочитанных сообщений. Пираты побережья / I pirati della costa / Les pirates de la côte / Pirates of the Coast [Приключения, 1960] DVDRip, Avo

salma3

93 | 31

1.5 ГБ

В этой теме нет новых непрочитанных сообщений. Пираты Карибского моря: Мертвецы не рассказывают сказки / Pirates of the Caribbean: Dead Men Tell No Tales [Фэнтези, боевик, комедия, приключения, 2017] HDRip-1080p, Dub [Тизер]

salma3

1268 | 18

26.73 МБ

В этой теме нет новых непрочитанных сообщений. Банда грабителей / Band of Robbers [Триллер, комедия, криминал, приключения, 2015] WEB-DLRip, avo

Dracon

2040 | 54

1.44 ГБ

В этой теме нет новых непрочитанных сообщений. Белка и Стрелка: Лунные приключения [мультфильм, комедия, приключения, семейный, 2013] BDRip 1080p | [Лицензия]

Dracon

64 | 4

3.88 ГБ

В этой теме нет новых непрочитанных сообщений. Приключения мистера Пибоди и Шермана / Mr. Peabody & Sherman [Мультфильм, Фантастика, Комедия, Приключения, Семейный, 2014] BDRip 1080p, Dub+Sub [Blu-ray CEE]

Dracon

104 | 8

8.54 ГБ

В этой теме нет новых непрочитанных сообщений. Пираты / Pirates / Hae-jeok: Ba-da-ro gan san-jeok [история, комедия, приключения, 2014] HDRip, dvo [GREEN TEA]

Dracon

568 | 13

2.19 ГБ


Начать новую тему Ответить на тему  [ 1 сообщение ] 




Для Мосгорсуда, Роскомнадзора и рекламодателей:: mosgorsud-torrent[собачка]yandex.ru