Торрент файл
скачать торрент магнет ссылка Добавлен: 21 авг 2012, 21:07
Размер: 743.12 МБ
Сидеров: 11
Личеров: 3
Автор

СообщениеДобавлено: 21 авг 2012, 21:07 

В сети
Супермодератор
Аватара пользователя
Дата регистрации:
15 фев 2012, 16:44
Возраст: 27
Спасибо: 5143 / 2090
Сообщения: 17495

Страна: США
Жанр:мультфильм, фантастика, боевик
Год выпуска: 2012
Продолжительность: 01:28:13

Перевод: Профессиональный (многоголосый) лицензия
Cубтитры: нет
Оригинальная аудиодорожка: нет

Режиссер: Синдзи Арамаки / Sindzi Armaki

В ролях: Гретчен Лодж, Джонни Льюис, Александра Холден, Филд Бловелт, Кен Арнольд, Тони Эллис, Лоурен Лакис, Кэти Фостер, Дэниэл Росс, Тодд Райан Джонс...

Описание: После того, как был покинут отдаленный форпост Федерации, Форт Кейси, Карл Дженкинс отправляется на разведку и исчезает в туманности. Закаленные во множественных боях солдаты могут своими действиями принести на Землю смерть человечества, а могут и наоборот его спасти. Третьего не дано.





Исходник: BDRip 720p
Качество: HDRip
Формат: AVI

Видео: 656x368 (16:9), 23.976 fps, XVID ~ 1033 kbps avg, 0.178 bit/pixel
Аудио: 48 kHz, MP3, 2 ch, 128 kbps



General
Complete name: Zvezdnuy.Desant.Vtorjenie.2012.P.HDRip.745Mb.avi
Format: AVI
Format/Info: Audio Video Interleave
File size: 743 MiB
Duration: 1h 28mn
Overall bit rate: 1 170 Kbps
Writing application: VirtualDubMod 1.5.10.2 (build 2540/release)
Writing library: VirtualDubMod build 2540/release

Video
ID: 0
Format: MPEG-4 Visual
Format profile: Advanced Simple@L5
Format settings, BVOP: 1
Format settings, QPel: No
Format settings, GMC: No warppoints
Format settings, Matrix: Custom
Codec ID: XVID
Codec ID/Hint: XviD
Duration: 1h 28mn
Bit rate: 1 033 Kbps
Width: 656 pixels
Height: 368 pixels
Display aspect ratio: 16:9
Frame rate: 23.976 fps
Color space: YUV
Chroma subsampling: 4:2:0
Bit depth: 8 bits
Scan type: Progressive
Compression mode: Lossy
Bits/(Pixel*Frame): 0.178
Stream size: 656 MiB (88%)
Writing library: XviD 64

Audio
ID: 1
Format: MPEG Audio
Format version: Version 1
Format profile: Layer 3
Mode: Joint stereo
Mode extension: MS Stereo
Codec ID: 55
Codec ID/Hint: MP3
Duration: 1h 28mn
Bit rate mode: Constant
Bit rate: 128 Kbps
Channel(s): 2 channels
Sampling rate: 48.0 KHz
Compression mode: Lossy
Stream size: 81.3 MiB (11%)
Alignment: Aligned on interleaves
Interleave, duration: 42 ms (1.00 video frame)
Interleave, preload duration: 504 ms







реклама партнёра


Вернуться к началу
 Профиль Отправить личное сообщение  
 
   Похожие торренты   Автор   Торрент   Размер 
В этой теме нет новых непрочитанных сообщений. Звездный десант 3: Мародер / Starship Troopers 3: Marauder [фантастика, боевик, приключения, 2008] BDRip 720p, Mvo+SUB

salma3

73 | 8

5.52 ГБ

В этой теме нет новых непрочитанных сообщений. Звездный десант 3: Мародер / Starship Troopers 3: Marauder [фантастика, боевик, приключения, 2008] BDRip 1080p, Mvo

salma3

38 | 5

11.64 ГБ

В этой теме нет новых непрочитанных сообщений. Сдохни! / Вторжение в Росвелл / Invasion Roswell [фантастика, боевик, 2013] HDRip, Mvo

Dracon

664 | 22

1.37 ГБ

В этой теме нет новых непрочитанных сообщений. Звёздный крейсер: Апокалипсис / Starship: Apocalypse [Фантастика, боевик, 2014] WEB-DLRip, Dvo

salma3

297 | 9

1.37 ГБ

В этой теме нет новых непрочитанных сообщений. Звездный крейсер: Восстание / Starship: Rising [Фантастика, Боевик, 2014] DVDRip, avo

Dracon

45 | 2

1.41 ГБ

В этой теме нет новых непрочитанных сообщений. Сдохни! / Вторжение в Росвелл / Invasion Roswell [фантастика, боевик, 2013] BDRip 720p, Mvo

Dracon

269 | 4

3.39 ГБ

В этой теме нет новых непрочитанных сообщений. Вторжение в Розуэлл / Сдохни! / Invasion Roswell / Exterminators / Battle: Earth [фантастика, боевик, 2013] BDRip 1080p, Dvo

salma3

178 | 20

7.04 ГБ


Начать новую тему Ответить на тему  [ 1 сообщение ] 




Для Мосгорсуда, Роскомнадзора и рекламодателей:: mosgorsud-torrent[собачка]yandex.ru