Торрент файл
скачать торрент магнет ссылка Добавлен: 21 авг 2012, 21:07
Размер: 743.12 МБ
Сидеров: 11
Личеров: 4
Автор

СообщениеДобавлено: 21 авг 2012, 21:07 

Не в сети
Супермодератор
Аватара пользователя
Дата регистрации:
15 фев 2012, 16:44
Возраст: 28
Спасибо: 6578 / 2143
Сообщения: 43992

Страна: США
Жанр:мультфильм, фантастика, боевик
Год выпуска: 2012
Продолжительность: 01:28:13

Перевод: Профессиональный (многоголосый) лицензия
Cубтитры: нет
Оригинальная аудиодорожка: нет

Режиссер: Синдзи Арамаки / Sindzi Armaki

В ролях: Гретчен Лодж, Джонни Льюис, Александра Холден, Филд Бловелт, Кен Арнольд, Тони Эллис, Лоурен Лакис, Кэти Фостер, Дэниэл Росс, Тодд Райан Джонс...

Описание: После того, как был покинут отдаленный форпост Федерации, Форт Кейси, Карл Дженкинс отправляется на разведку и исчезает в туманности. Закаленные во множественных боях солдаты могут своими действиями принести на Землю смерть человечества, а могут и наоборот его спасти. Третьего не дано.





Исходник: BDRip 720p
Качество: HDRip
Формат: AVI

Видео: 656x368 (16:9), 23.976 fps, XVID ~ 1033 kbps avg, 0.178 bit/pixel
Аудио: 48 kHz, MP3, 2 ch, 128 kbps



General
Complete name: Zvezdnuy.Desant.Vtorjenie.2012.P.HDRip.745Mb.avi
Format: AVI
Format/Info: Audio Video Interleave
File size: 743 MiB
Duration: 1h 28mn
Overall bit rate: 1 170 Kbps
Writing application: VirtualDubMod 1.5.10.2 (build 2540/release)
Writing library: VirtualDubMod build 2540/release

Video
ID: 0
Format: MPEG-4 Visual
Format profile: Advanced Simple@L5
Format settings, BVOP: 1
Format settings, QPel: No
Format settings, GMC: No warppoints
Format settings, Matrix: Custom
Codec ID: XVID
Codec ID/Hint: XviD
Duration: 1h 28mn
Bit rate: 1 033 Kbps
Width: 656 pixels
Height: 368 pixels
Display aspect ratio: 16:9
Frame rate: 23.976 fps
Color space: YUV
Chroma subsampling: 4:2:0
Bit depth: 8 bits
Scan type: Progressive
Compression mode: Lossy
Bits/(Pixel*Frame): 0.178
Stream size: 656 MiB (88%)
Writing library: XviD 64

Audio
ID: 1
Format: MPEG Audio
Format version: Version 1
Format profile: Layer 3
Mode: Joint stereo
Mode extension: MS Stereo
Codec ID: 55
Codec ID/Hint: MP3
Duration: 1h 28mn
Bit rate mode: Constant
Bit rate: 128 Kbps
Channel(s): 2 channels
Sampling rate: 48.0 KHz
Compression mode: Lossy
Stream size: 81.3 MiB (11%)
Alignment: Aligned on interleaves
Interleave, duration: 42 ms (1.00 video frame)
Interleave, preload duration: 504 ms







реклама партнёра


Вернуться к началу
 Профиль Отправить личное сообщение  
 
   Похожие торренты   Автор   Торрент   Размер 
В этой теме нет новых непрочитанных сообщений. Звёздный десант: Предатель Марса / Starship Troopers: Traitor of Mars [мультфильм, фантастика, боевик, 2017] WEB-DLRip, Mvo [Line]

salma3

2021 | 359

1.37 ГБ

В этой теме нет новых непрочитанных сообщений. Звёздный десант: Предатель Марса / Starship Troopers: Traitor of Mars [Мультфильм, фантастика, боевик, 2017] BDRip-AVC, Mvo [Лицензия]

salma3

52 | 4

2.18 ГБ

В этой теме нет новых непрочитанных сообщений. Звёздный десант: Предатель Марса / Starship Troopers: Traitor of Mars [мультфильм, фантастика, боевик, 2017] BDRip, Mvo [Лицензия]

salma3

1 | 49

1.46 ГБ

В этой теме нет новых непрочитанных сообщений. Звёздный десант: Предатель Марса / Starship Troopers: Traitor of Mars [Мультфильм, фантастика, боевик, 2017] Blu-Ray EUR 1080p, Dub [Лицензия]

salma3

12 | 57

31.09 ГБ

В этой теме нет новых непрочитанных сообщений. Звёздный десант: Предатель Марса / Starship Troopers: Traitor of Mars [Мультфильм, фантастика, боевик, 2017] BDRemux 1080p, Mvo [Лицензия]

salma3

30 | 11

19.48 ГБ

В этой теме нет новых непрочитанных сообщений. Звёздный десант: Предатель Марса / Starship Troopers: Traitor of Mars [мультфильм, фантастика, боевик, 2017] BDRip 1080p, Mvo [iTunes]

salma3

1494 | 727

12.15 ГБ

В этой теме нет новых непрочитанных сообщений. Звёздный десант: Предатель Марса / Starship Troopers: Traitor of Mars [Мультфильм, фантастика, боевик, 2017] BDRip 1080p, Mvo [Лицензия]

salma3

32 | 21

8.75 ГБ


Начать новую тему Ответить на тему  [ 1 сообщение ] 




Для Мосгорсуда, Роскомнадзора и рекламодателей:: mosgorsud-torrent[собачка]yandex.ru