Торрент файл
скачать торрент магнет ссылка Добавлен: 14 авг 2012, 18:24
Размер: 13.31 ГБ
Сидеров: 196
Личеров: 66
Автор

СообщениеДобавлено: 14 авг 2012, 18:24 

Не в сети
5 Звёзд
Аватара пользователя
Дата регистрации:
20 апр 2012, 10:59
Возраст: 35
Спасибо: 941 / 102
Сообщения: 1292
Откуда: Москва

Название: Время приключений
Оригинальное название: Adventure Time
Страна: США
Жанр: Комедия , Приключения
Продолжительность: 00:21:00
Год выпуска: 2010 - 2011
Перевод: Профессиональный (дублированный)
Русские субтитры: нет

Режиссёр: Пендлтон Ворд / Pendleton Ward

Описание: Пора Приключений - американский анимационный сериал, созданный Пендлтоном Вордом. Сериал повествует о необыкновенных и весёлых приключениях двух лучших друзей: мальчика Финна и его собаки Джейка. Действие сериала происходит в волшебной стране Ууу. Финн - 13-летний мальчик, который обожает путешествовать и спасать принцесс из лап ужасных монстров и злодеев, населяющих Землю Ууу. Джейк - лучший друг Финна. Это волшебная собака со способностью растягивать своё тело до практически любых размеров и форм. Джейку 28 лет и он исполняет роль эдакого приятеля-наставника Финна, а его волшебные способности помогают мальчику в его борьбе со злом.

1 Сезон
Season 1, Episode 1: Slumber Party Panic / Trouble in Lumpy Space
Season 1, Episode 2: Prisoners of Love / Tree Trunks
Season 1, Episode 3: The Enchiridion! / The Jiggler
Season 1, Episode 4: Ricardio the Heart Guy / Business Time
Season 1, Episode 5: My Two Favorite People / Memories of Boom Boom Mountain
Season 1, Episode 6: Wizard / Evicted!
Season 1, Episode 7: City of Thieves / The Witch's Garden
Season 1, Episode 8: What is Life? / Ocean of Fear
Season 1, Episode 9: Wedding Bells Thaw / Freak City
Season 1, Episode 10: The Duke / Donny
Season 1, Episode 11: Henchman / Dungeon
Season 1, Episode 12: What Have You Done? / Rainy Day Daydream
Season 1, Episode 13: Gut Grinder / His Heroe Witch's Garden
2 Сезон
Season 2, Episode 1: It Came from the Nightosphere / The Eyes
Season 2, Episode 2: Loyalty to the King / Blood Under the Skin
Season 2, Episode 3: Storytelling / Slow Love
Season 2, Episode 4: Power Animal / Crystals Have Power
Season 2, Episode 5: The Other Tarts / To Cut a Woman's Hair
Season 2, Episode 6: The Chamber of Frozen Blades / Her Parents
Season 2, Episode 7: The Pods / The Silent King
Season 2, Episode 8: The Real You / Guardians of Sunshine
Season 2, Episode 9: Death in Bloom / Susan Strong
Season 2, Episode 10: Mystery Train / Go With Me
Season 2, Episode 11: Belly of the Beast / The Limit
Season 2, Episode 12: Video Makers / Heat Signature
Season 2, Episode 13: Mortal Recoil
3 Сезон
Season 3, Episode 1: Conquest of Cuteness - Morituri Te Salutamus
Season 3, Episode 2: Too Young - Thank You
Season 3, Episode 3: Fionna and Cake - The Monster
Season 3, Episode 4: Still - Wizard Battle
Season 3, Episode 5: Beautopia - From Bad to Worse
Season 3, Episode 6: What Was Missing - Apple Thief
Season 3, Episode 7: Memory of a Memory - Hitman
Season 3, Episode 8: No One Can Hear You - The Creeps
Season 3, Episode 9: Jake vs. Me-Mow - The New Frontier
Season 3, Episode 10: Holly Jolly Secrets (Part I) - Holly Jolly Secrets (Part II)
Season 3, Episode 11: Marceline's Closet - Incendium
Season 3, Episode 12: Another Way - Paper Pete
Season 3, Episode 13: Ghost Princess - Dad's Dungeon

Релиз:

Качество: DVB
Формат: mpg
Видео: MPEG2 Video 720x576 (4:3) 25.00fps 1 936 Kbps
Аудио: MPEG Audio 48000Hz stereo 192kbps
Субтитры: отсутствуют

General
Complete name : C:\Время приключений\Season 1\S 01 ep 01 Slumber Party Panic - Trouble in Lumpy Space.mpg
Format : MPEG-PS
File size : 341 MiB
Duration : 21mn 58s
Overall bit rate mode : Variable
Overall bit rate : 2 171 Kbps
Video
ID : 224 (0xE0)
Format : MPEG Video
Format version : Version 2
Format profile : Main@Main
Format settings, BVOP : No
Format settings, Matrix : Custom
Format settings, GOP : M=1, N=28
Duration : 21mn 58s
Bit rate mode : Variable
Bit rate : 1 936 Kbps
Maximum bit rate : 15.0 Mbps
Width : 720 pixels
Height : 576 pixels
Display aspect ratio : 4:3
Frame rate : 25.000 fps
Standard : PAL
Color space : YUV
Chroma subsampling : 4:2:0
Bit depth : 8 bits
Scan type : Interlaced
Scan order : Top Field First
Compression mode : Lossy
Bits/(Pixel*Frame) : 0.187
Stream size : 304 MiB (89%)
Audio
ID : 192 (0xC0)
Format : MPEG Audio
Format version : Version 1
Format profile : Layer 2
Duration : 21mn 58s
Bit rate mode : Constant
Bit rate : 192 Kbps
Channel(s) : 2 channels
Sampling rate : 48.0 KHz
Compression mode : Lossy
Delay relative to video : -112ms
Stream size : 30.2 MiB (9%)


_________________




реклама партнёра


Вернуться к началу
 Профиль Отправить личное сообщение  
 
   Похожие торренты   Автор   Торрент   Размер 
В этой теме нет новых непрочитанных сообщений. Король приключений / Adventure King [Боевик, приключения, 1996] DVDRip, Mvo

salma3

45 | 4

746.59 МБ

В этой теме нет новых непрочитанных сообщений. Однажды в Сказке / Once Upon a Time / 4 сезон 1-23 серии из 23 [фэнтези, драма, приключения , 2014] WEB-DLRip, Dub [Невафильм]

salma3

1080 | 538

11.22 ГБ

В этой теме нет новых непрочитанных сообщений. Bill Ward - Ward One - Along The Way [1990,Hard Rock,MP3]

PriZraK

0 | 1

113.39 МБ

В этой теме нет новых непрочитанных сообщений. Путешествие в машине времени / Time After Time [фантастика, триллер, драма, мелодрама, комедия, приключения, 1979] DVDRip, Mvo+Dvo

salma3

23 | 5

1.46 ГБ

В этой теме нет новых непрочитанных сообщений. Всё о Рози / Everything's Rosie / 1-2 сезон: 52 серии из 52 [мультсериал, детский, приключения, познавательный, 2010-2011]SATRip, Mvo

salma3

11 | 11

7.57 ГБ

В этой теме нет новых непрочитанных сообщений. Однажды в Сказке / Once Upon a Time / 3 сезон 1-22 серии из 22 [фэнтези, 2013-2014] WEB-DLRip, Avo

salma3

349 | 100

9.62 ГБ

В этой теме нет новых непрочитанных сообщений. Однажды в Сказке / Once Upon a Time / 3 сезон 1-22 серии из 22 [фэнтези, 2013-2014] WEB-DL 720p, Mvo

salma3

26 | 13

31.8 ГБ


Начать новую тему Ответить на тему  [ 1 сообщение ] 




Для Мосгорсуда, Роскомнадзора и рекламодателей:: mosgorsud-torrent[собачка]yandex.ru