Торрент файл
скачать торрент магнет ссылка Добавлен: 02 авг 2012, 00:42
Размер: 707.69 МБ
Сидеров: 7
Личеров: 7
Автор

СообщениеДобавлено: 02 авг 2012, 00:42 

В сети
Супермодератор
Аватара пользователя
Дата регистрации:
15 фев 2012, 16:44
Возраст: 27
Спасибо: 5139 / 2089
Сообщения: 17416
Леди Смерть / Lady Death

«Only in death does she find the will to live»
Перевод: Любительский (одноголосый), cубтитры: отсутствуют
Формат: LowHDRip-AVC, MKV, H.264, AAC
Страна: США
Режиссер: Энди Орджуэла
Жанр: мультфильм, фэнтези, ужасы, боевик
Продолжительность: 01:16:23
Год выпуска: 2004
В ролях: Кристин М.Отен, Майк Клейнэнз, Энди МакАвин, Роб Мангл, Майк МакРэй, Крис Паттон, Дуайт Кларк, Морин МакКалло, Тед Пфистер, Марси Рэй
Описание: Её легенда началась в XV веке, когда её предали костру за грехи её отца Лорда Маттиаса, который оказался самим Люцифером.
Обманом Люцифер призвал свою дочь в Ад, где рассказал ей о её безграничных возможностях и предложил ей править Адом вместе.
В замен на её согласие он пообещал вернуть ей любимых которых у нее когда то отнял, но Хоуп отвергла его предложение, за что была свергнута в пучины Ада, где она поклялась убить Люцифера ...


Видео: 720х400 (16:9), 23,976 fps, AVC (х264), , ~1100 Kbps avg, 0.159 bit/pixel
Аудио: 48.0 kHz, AAC, 2 channels (Front: L R), ~192.00 kbps avg
Доп. информация: Изображение на весь экран. Фильм, исходя из жанра и костюма героини, ориентирован скорее на взрослую аудиторию
Общее
Полное имя: D:\Video\...\lady_death_[tfile.ru].mkv
Формат: MPEG-4
Профиль формата: Base Media
Идентификатор кодека: isom
Размер файла: 708 Мбайт
Продолжительность: 1 ч. 16 м.
Режим общего битрейта: Переменный
Общий поток: 1295 Кбит/сек
Дата кодирования: UTC 2010-01-31 11:51:12
Дата пометки: UTC 2010-01-31 11:51:12
Видео
Идентификатор: 1
Формат: AVC
Формат/Информация: Advanced Video Codec
Профиль формата:
Параметр CABAC формата: Да
Параметр ReFrames формата: 12 кадров
Идентификатор кодека: avc1
Идентификатор кодека/Информация: Advanced Video Coding
Продолжительность: 1 ч. 16 м.
Битрейт: 1100 Кбит/сек
Максимальный битрейт: 7475 Кбит/сек
Ширина: 720 пикселей
Высота: 400 пикселей
Соотношение сторон: 16:9
Режим частоты кадров: Постоянный
Частота кадров: 23,976 кадра/сек
Цветовое пространство: YUV
Субдискретизация насыщенности: 4:2:0
Битовая глубина: 8 бит
Тип развёртки: Прогрессивная
Бит/(Пиксели*Кадры): 0.159
Размер потока: 601 Мбайт (85%)
Библиотека кодирования: x264 core 80 r1376M 3feaec2
Настройки программы: cabac=1 / ref=12 / deblock=1:1:1 / analyse=0x3:0x133 / me=umh / subme=7 / psy=1 / psy_rd=0.6:0.0 /
mixed_ref=1 / me_range=16 / chroma_me=1 / trellis=2 / 8x8dct=1 / cqm=0 / deadzone=21,11 / fast_pskip=1 / chroma_qp_offset=-2 / threads=3 /
sliced_threads=0 / nr=0 / decimate=1 / mbaff=0 / constrained_intra=0 / bframes=16 / b_pyramid=0 / b_adapt=1 / b_bias=0 / direct=3 / wpredb=0 /
wpredp=2 / keyint=250 / keyint_min=25 / scenecut=40 / rc_lookahead=40 / rc=2pass / mbtree=1 / bitrate=1100 / ratetol=1.0 / qcomp=0.60 / qpmin=10 /
qpmax=51 / qpstep=4 / cplxblur=20.0 / qblur=0.5 / ip_ratio=1.40 / aq=1:0.00
Аудио
Идентификатор: 2
Формат: AAC
Формат/Информация: Advanced Audio Codec
Профиль формата: LC
Идентификатор кодека: 40
Продолжительность: 1 ч. 16 м.
Вид битрейта: Переменный
Битрейт: 192 Кбит/сек
Максимальный битрейт: 201 Кбит/сек
Каналы: 2 канала
Расположение каналов: Front: L R
Частота: 48,0 КГц
Метод сжатия: С потерями
Размер потока: 105 Мбайт (15%)
Язык: Russian













реклама партнёра


Вернуться к началу
 Профиль Отправить личное сообщение  
 
   Похожие торренты   Автор   Торрент   Размер 
В этой теме нет новых непрочитанных сообщений. Леди дракон / Lady Dragon [Боевик, 1992] DVDRip-AVC, 2Avo

salma3

43 | 3

2.3 ГБ

В этой теме нет новых непрочитанных сообщений. Леди в фургоне / The Lady in the Van [драма, комедия, биография, 2015] HDRip, Dvo

salma3

293 | 15

1.36 ГБ

В этой теме нет новых непрочитанных сообщений. Леди Динамит / Lady Dynamite [S01] [Комедия, 2016] WEBRip, Mvo [IdeaFilm]

salma3

37 | 11

4.63 ГБ

В этой теме нет новых непрочитанных сообщений. Кровавая леди Батори / Lady of Csejte (Андрей Конст) [Триллер, 2015] TS

Dracon

4 | 3

1.46 ГБ

В этой теме нет новых непрочитанных сообщений. Моя прекрасная леди / My Fair Lady [Мюзикл, Мелодрама, 1964] BDRip 1080p, Mvo

salma3

0 | 0

14.63 ГБ

В этой теме нет новых непрочитанных сообщений. Кровавая леди Батори / Lady of Csejte (Андрей Конст) [Триллер, 2015] WEBRip

Dracon

45 | 3

1.46 ГБ

В этой теме нет новых непрочитанных сообщений. Леди Джейн / Lady Jane [драма, мелодрама, биография, история, 1985] DVDRip, Dub

salma3

63 | 4

1.46 ГБ


Начать новую тему Ответить на тему  [ 1 сообщение ] 




Для Мосгорсуда, Роскомнадзора и рекламодателей:: mosgorsud-torrent[собачка]yandex.ru