Торрент файл
скачать торрент магнет ссылка Добавлен: 29 июн 2012, 10:01
Размер: 492.37 МБ
Сидеров: 0
Личеров: 2
Автор

СообщениеДобавлено: 29 июн 2012, 10:01 

Не в сети
Администратор
Дата регистрации:
08 апр 2010, 18:00
Спасибо: 1075 / 220
Сообщения: 17131

Информация о фильме
Название: Футурама
Оригинальное название: Futurama
Год выхода: 2012
Жанр: Мультфильм, комедия, фантастика
Режиссер: Мэтт Гроунинг / Matt Groening
В ролях: Билли Уэст, Кейти Сэгал, Джон ДиМаджио, Фил ЛаМарр, Лоурэн Том

О фильме:
По нелепой случайности Фрай попадет в будущее — в 3000-ый год, где его ждут верные друзья в лице безумного робота Бендера и одноглазой Лилы...
Страна: США
Продолжительность: 00:21:39
Перевод: Одноголосый закадровый (КетчупТВ)

Файл
Кодек: H264
Качество: WEB-DLRip 360p | КетчупТВ
Видео: MPEG4 Video (H264) 640x360 24fps
Звук: MPEG Audio Layer 3 44100Hz stereo 128kbps
Субтитры: Отсутствуют

General
Format: AVI
Format/Info: Audio Video Interleave
File size: 246 MiB
Duration: 21mn 38s
Overall bit rate mode: Variable
Overall bit rate: 1 590 Kbps
Writing application: Lavf52.94.0

Video
ID: 0
Format: AVC
Format/Info: Advanced Video Codec
Format profile: Main@L3.0
Format settings, CABAC: Yes
Format settings, ReFrames: 1 frame
Format settings, GOP: M=1, N=15
Codec ID: H264
Duration: 21mn 38s
Bit rate mode: Variable
Bit rate: 1 450 Kbps
Maximum bit rate: 4 406 Kbps
Width: 640 pixels
Height: 360 pixels
Display aspect ratio: 16:9
Frame rate: 24.000 fps
Color space: YUV
Chroma subsampling: 4:2:0
Bit depth: 8 bits
Scan type: Progressive
Bits/(Pixel*Frame): 0.262
Stream size: 224 MiB (91%)

Audio
ID: 1
Format: MPEG Audio
Format version: Version 1
Format profile: Layer 3
Mode: Joint stereo
Mode extension: MS Stereo
Codec ID: 55
Codec ID/Hint: MP3
Duration: 21mn 38s
Bit rate mode: Constant
Bit rate: 128 Kbps
Channel(s): 2 channels
Sampling rate: 44.1 KHz
Compression mode: Lossy
Stream size: 19.8 MiB (8%)
Alignment: Aligned on interleaves
Interleave, duration: 26 ms (0.63 video frame)
Writing library: LAME3.98.4






реклама партнёра


Вернуться к началу
 Профиль Отправить личное сообщение  
 
   Похожие торренты   Автор   Торрент   Размер 
В этой теме нет новых непрочитанных сообщений. Светофор [07x01-20 из 20] [Ситком, комедия, ремейк, 2014] WEB-DLRip

Dracon

289 | 89

6.45 ГБ

В этой теме нет новых непрочитанных сообщений. Ходячие мертвецы / The Walking Dead [07x01-05 из 16] (2016) WEB-DLRip | IdeaFilm

marya111

75 | 339

3.2 ГБ

В этой теме нет новых непрочитанных сообщений. Ходячие мертвецы / The Walking Dead [07x01-05 из 16] (2016) WEB-DLRip 720p | IdeaFilm

marya111

51 | 209

7.72 ГБ

В этой теме нет новых непрочитанных сообщений. Бывает и хуже / The Middle [07x01-21 из 24] (2016) WEB-DLRip от GeneralFilm | Paramount Comedy

marya111

15 | 8

5.02 ГБ

В этой теме нет новых непрочитанных сообщений. Ходячие мертвецы / The Walking Dead [07x01-05 из 16] (2016) WEB-DLRip от Semak | Jaskier

marya111

76 | 203

2.3 ГБ

В этой теме нет новых непрочитанных сообщений. Ходячие мертвецы / The Walking Dead [07x01 из 16] (Ужасы, драма, 2016) WEB-DLRip | КПК | LostFilm

marya111

0 | 0

243.74 МБ

В этой теме нет новых непрочитанных сообщений. Риццоли и Айлс / Rizzoli & Isles [07x01-09] [Драма, детектив, 2016] WEB-DLRip, Mvo [NewStudio]

salma3

74 | 37

4.73 ГБ


Начать новую тему Ответить на тему  [ 1 сообщение ] 




Для Мосгорсуда, Роскомнадзора и рекламодателей:: mosgorsud-torrent[собачка]yandex.ru