Торрент файл
скачать торрент магнет ссылка Добавлен: 23 май 2012, 11:34
Размер: 4.61 ГБ
Сидеров: 144
Личеров: 44
Автор

СообщениеДобавлено: 23 май 2012, 11:34 

Не в сети
Зам. Админа
Аватара пользователя
Дата регистрации:
02 дек 2010, 12:39
Спасибо: 12461 / 214
Сообщения: 27968
Симпсоны / The Simpsons (сезон 23, 1-16 серии из 22)

Перевод: Профессиональный (многоголосый, закадровый)[NemFilm], cубтитры: отсутствуют
Формат: WEB-DLRip, AVI, XviD, MP3
Страна: США
Режиссер: Мэтт Гроенинг/ Matt Groening
Жанр: Мультсериал, комедия, пародия
Всего серий: 22
Продолжительность: 16 x ~00:21
Год выпуска: 2011
В ролях: Дэн Кастелланета, Джули Кавнер, Нэнси Картрайт, Ярдли Смит, Гарри Ширер,
Хэнк Азария, Памела Хейден, Тресс МакНилл, Карл Видерготт, Мэгги Росвэлл и другие.
Описание: Симпсоны - самый длинный и популярный мультсериал в истории американского телевидения.
Рейтинги:

Видео: XviD, 720x400, 23.976fps, 1634kbps, 0.237 bit/pixel
Аудио1:MP3; 48000Hz; 2ch; 128kbps [Русский]
Аудио2:MP3; 48000Hz; 2ch; 128kbps [Оригинал]

Доп. информация:
Внимание! Раздача ведётся путём добавления новых серий; при каждом добавлении создётся новый торрент. Чтобы начать докачку новой серии, пользователям необходимо сделать следующее:
(1) остановить скачивание,
(2) удалить старый торрент у себя из клиента (старые серии удалять не надо),
(3) скачать новый торрент и запустить его у себя в клиенте вместо старого, при этом указать клиенту путь в старую папку куда и должно происходить скачивание новых серий.
Ваш клиент при этом должен произвести хеширование (проверку) старой папки (если не производит сам - помогите ему сделать это), и будет докачивать только те серии которых у вас ещё нет. Старые серии при этом не удаляются, а продолжают раздаваться!
Eсли вы уже удалили старые серии, то предотвратить повторную закачку старых серий можно, отжав галочку в соответсвующих местах при запуске нового торрента. По возможности, желательно не удалять старые серии как можно дольше чтобы релизёр не столько продолжал раздавать старые серии, а смог сконцентрироваться на новых.

Расписание выхода серий смотрим здесь, добавляя ~неделю на перевод и озвучку.
23 сезон:
1. Falcon and the D’ohman
2. Bart Stops to Smell the Roosevelts
3. Treehouse of Horrors XXII
4. Replaceable You
5. The Food Wife
6. The Book Job
7. The Man in the Blue Flannel Pants
8. The Ten-Per-Cent Solution
9. Holidays of Future Passed
10. Politically Inept, With Homer Simpson
11. The D'oh-cial Network
12. Moe Goes From Rags To Riches
13. The Daughter Also Rises
14. At Long Last Leave
15. Exit Through the Kwik-E-Mart
16. How I Wet Your Mother

Общее
Полное имя: E:\Видео\The Simpsons Season 23_NemFilm_[tfile.ru]\The.Simpsons.S23E01.The.Falcon.and.the.D'Ohman.NemFilm.avi
Формат: AVI
Формат/Информация: Audio Video Interleave
Размер файла: 298 Мбайт
Продолжительность: 21 м.
Общий поток: 1904 Кбит/сек
Программа кодирования: VirtualDubMod 1.5.10.2 (build 2540/release)
Библиотека кодирования: VirtualDubMod build 2540/release
Видео
Идентификатор: 0
Формат: MPEG-4 Visual
Профиль формата: Advanced Simple@L5
Параметр BVOP формата: 1
Параметр QPel формата: Нет
Параметр GMC формата: Без точки перехода
Параметр матрицы формата: Default (H.263)
Режим смешивания: Сжатый битовый поток
Идентификатор кодека: XVID
Идентификатор кодека/Подсказка: XviD
Продолжительность: 21 м.
Битрейт: 1634 Кбит/сек
Ширина: 720 пикселей
Высота: 400 пикселей
Соотношение сторон: 16:9
Частота кадров: 23,976 кадра/сек
Цветовое пространство: YUV
Субдискретизация насыщенности: 4:2:0
Битовая глубина: 8 бит
Тип развёртки: Прогрессивная
Метод сжатия: С потерями
Бит/(Пиксели*Кадры): 0.237
Размер потока: 255 Мбайт (86%)
Библиотека кодирования: XviD 64
Аудио #1
Идентификатор: 1
Формат: MPEG Audio
Версия формата: Version 1
Профиль формата: Layer 3
Режим: Joint stereo
Расширение режима: MS Stereo
Идентификатор кодека: 55
Идентификатор кодека/Подсказка: MP3
Продолжительность: 21 м.
Вид битрейта: Постоянный
Битрейт: 128 Кбит/сек
Каналы: 2 канала
Частота: 48,0 КГц
Метод сжатия: С потерями
Размер потока: 20,0 Мбайт (7%)
Выравнивание: Соединение по промежуткам
Продолжительность промежутка: 42мс. (1,00 видеокадр)
Время предзагрузки промежутка: 504мс.
Аудио #2
Идентификатор: 2
Формат: MPEG Audio
Версия формата: Version 1
Профиль формата: Layer 3
Режим: Joint stereo
Расширение режима: MS Stereo
Идентификатор кодека: 55
Идентификатор кодека/Подсказка: MP3
Продолжительность: 21 м.
Вид битрейта: Постоянный
Битрейт: 128 Кбит/сек
Каналы: 2 канала
Частота: 48,0 КГц
Метод сжатия: С потерями
Размер потока: 20,0 Мбайт (7%)
Выравнивание: Соединение по промежуткам
Продолжительность промежутка: 42мс. (1,00 видеокадр)
Время предзагрузки промежутка: 504мс.










реклама партнёра


Вернуться к началу
 Профиль  
 
   Похожие торренты   Автор   Торрент   Размер 
В этой теме нет новых непрочитанных сообщений. Симпсоны / The Simpsons [26x01-07 из 22] (Мэтт Гроунинг) [2014, Комедия, мультсериал, семейный, WEB-DL 720p | Nice-Media]

Nickolas3435

167 | 180

4.33 ГБ

В этой теме нет новых непрочитанных сообщений. Симпсоны / The Simpsons [27x01-13 из 22] (Мэтт Гроунинг) [Комедия, сатира, 2015] WEB-DLRip [OMSKBIRD records]

Dracon

0 | 0

5.04 ГБ

В этой теме нет новых непрочитанных сообщений. Симпсоны / The Simpsons [26х01-14 из 22] (Мэтт Гроунинг) [2014, Комедия, сатира, WEB-DL 720p | OmskBird]

Nickolas3435

19 | 21

14.35 ГБ

В этой теме нет новых непрочитанных сообщений. Симпсоны / The Simpsons [27x01-13 из 22] (Мэтт Гроунинг) [Комедия, сатира, 2015] WEB-DL 720p [OMSKBIRD records]

Dracon

0 | 1

9.58 ГБ

В этой теме нет новых непрочитанных сообщений. Симпсоны / The Simpsons [27x01-10 из 22] (Мэтт Гроунинг) [Комедия, сатира, 2015] WEB-DL 720p [OMSKBIRD records]

marya111

0 | 0

7.46 ГБ

В этой теме нет новых непрочитанных сообщений. Симпсоны / The Simpsons [28x01-05 из 22] (Комедия, мультсериал, семейный, 2016) HDTV 720p | IdeaFilm

marya111

25 | 16

3.19 ГБ

В этой теме нет новых непрочитанных сообщений. Симпсоны / The Simpsons [28x01-02 из 22] ( Комедия, мультсериал, семейный, 2016) HDTV 720p | IdeaFilm

marya111

49 | 54

1.28 ГБ


Начать новую тему Ответить на тему  [ 1 сообщение ] 




Для Мосгорсуда, Роскомнадзора и рекламодателей:: mosgorsud-torrent[собачка]yandex.ru