Торрент файл
скачать торрент магнет ссылка Добавлен: 20 май 2012, 03:17
Размер: 1.72 ГБ
Сидеров: 0
Личеров: 3
Статус: (drink)
Автор

СообщениеДобавлено: 20 май 2012, 03:17 

Не в сети
5 Звёзд
Аватара пользователя
Дата регистрации:
20 апр 2012, 10:59
Возраст: 35
Спасибо: 941 / 102
Сообщения: 1292
Откуда: Москва

Название: Медведи - соседи
Оригинальное название: Boonie Bears
Год выпуска: 2010
Жанр: Мультсериал, комедия
Выпущено: Китай
Режиссер: Леон Динг

О фильме: Комедийный анимационный мультсериал про двух медведей - защитников леса. В прекрасном заповедном лесу мирно уживаются звери и птицы. Но однажды туда приходит злой и хитрый дровосек - он хочет полностью вырубить нетронутый лес! Хорошо, что лесные просторы охраняют храбрые и могучие медведи-соседи - вдвоем они справятся с любой опасностью и проучат подлого дровосека.

Качество: SATRip
Видео: XviD, ~ 1700 Кбит/с, 704x400
Аудио: АС3, 2 ch, 192 Кбит/с
Продолжительность: 10 x ~ 00:12:59
Перевод: Профессиональный (многоголосый закадровый)

61. Жуткий лес / Creepy Forest
62. Летающий дом / A Flying House
63. Бесконечный выходной / Endless Holidays
64. Бронерованный Вик / Armored Vick
65. Автомат для газировки / Drink Dispensers
66. Новый медведь / A New "Bear" Buddy
67. Уборка / Cleaning Day
68. Герои-пожарные / Firefighting Heroes
69. Ультра классный камуфляж / super Ultra Camouflage Cloth
70. Кун-фу мишки / Kung Fu Bears
J:\33333\Medvedi.sosedi.(1-50.serii).2010.XviD.SATRip.Thunder\Medvedi.sosedi.(61-70.serii).2010.XviD.SATRip.Thunder\Medvedi.sosedi.(61.seriya).Zhutkij.les.2010.XviD.SATRip.Thunder.avi
General
Complete name : J:\33333\Medvedi.sosedi.(1-50.serii).2010.XviD.SATRip.Thunder\Medvedi.sosedi.(61-70.serii).2010.XviD.SATRip.Thunder\Medvedi.sosedi.(61.seriya).Zhutkij.les.2010.XviD.SATRip.Thunder.avi
Format : AVI
Format/Info : Audio Video Interleave
File size : 177 MiB
Duration : 12mn 59s
Overall bit rate : 1 902 Kbps
Director : Rip by Thunder
Writing application : VirtualDubMod 1.5.10.3 | http://www.virtualdub-fr.org || (build 2550/release)
Video #0
ID : 0
Format : MPEG-4 Visual
Format profile : Advanced Simple@L5
Format settings, BVOP : 2
Format settings, QPel : No
Format settings, GMC : No warppoints
Format settings, Matrix : Default (MPEG)
Codec ID : XVID
Codec ID/Hint : XviD
Duration : 12mn 59s
Bit rate : 1 700 Kbps
Width : 704 pixels
Height : 400 pixels
Display aspect ratio : 16:9
Frame rate : 25.000 fps
Color space : YUV
Chroma subsampling : 4:2:0
Bit depth : 8 bits
Scan type : Progressive
Compression mode : Lossy
Bits/(Pixel*Frame) : 0.241
Stream size : 158 MiB (89%)
Writing library : XviD 1.2.1 (UTC 2008-12-04)
Audio #1
ID : 1
Format : AC-3
Format/Info : Audio Coding 3
Mode extension : CM (complete main)
Codec ID : 2000
Duration : 12mn 59s
Bit rate mode : Constant
Bit rate : 192 Kbps
Channel(s) : 2 channels
Channel positions : Front: L R
Sampling rate : 48.0 KHz
Bit depth : 16 bits
Compression mode : Lossy
Stream size : 17.9 MiB (10%)
Alignment : Split accross interleaves
Interleave, duration : 40 ms (1.00 video frame)
Interleave, preload duration : 500 ms



J:\33333\Medvedi.sosedi.(1-50.serii).2010.XviD.SATRip.Thunder\Medvedi.sosedi.(61-70.serii).2010.XviD.SATRip.Thunder\Medvedi.sosedi.(62.seriya).Letajushhij.dom.2010.XviD.SATRip.Thunder.avi
General
Complete name : J:\33333\Medvedi.sosedi.(1-50.serii).2010.XviD.SATRip.Thunder\Medvedi.sosedi.(61-70.serii).2010.XviD.SATRip.Thunder\Medvedi.sosedi.(62.seriya).Letajushhij.dom.2010.XviD.SATRip.Thunder.avi
Format : AVI
Format/Info : Audio Video Interleave
File size : 177 MiB
Duration : 12mn 59s
Overall bit rate : 1 902 Kbps
Director : Rip by Thunder
Writing application : VirtualDubMod 1.5.10.3 | http://www.virtualdub-fr.org || (build 2550/release)
Video #0
ID : 0
Format : MPEG-4 Visual
Format profile : Advanced Simple@L5
Format settings, BVOP : 2
Format settings, QPel : No
Format settings, GMC : No warppoints
Format settings, Matrix : Default (MPEG)
Codec ID : XVID
Codec ID/Hint : XviD
Duration : 12mn 59s
Bit rate : 1 700 Kbps
Width : 704 pixels
Height : 400 pixels
Display aspect ratio : 16:9
Frame rate : 25.000 fps
Color space : YUV
Chroma subsampling : 4:2:0
Bit depth : 8 bits
Scan type : Progressive
Compression mode : Lossy
Bits/(Pixel*Frame) : 0.241
Stream size : 158 MiB (89%)
Writing library : XviD 1.2.1 (UTC 2008-12-04)
Audio #1
ID : 1
Format : AC-3
Format/Info : Audio Coding 3
Mode extension : CM (complete main)
Codec ID : 2000
Duration : 12mn 59s
Bit rate mode : Constant
Bit rate : 192 Kbps
Channel(s) : 2 channels
Channel positions : Front: L R
Sampling rate : 48.0 KHz
Bit depth : 16 bits
Compression mode : Lossy
Stream size : 17.9 MiB (10%)
Alignment : Split accross interleaves
Interleave, duration : 40 ms (1.00 video frame)
Interleave, preload duration : 500 ms



J:\33333\Medvedi.sosedi.(1-50.serii).2010.XviD.SATRip.Thunder\Medvedi.sosedi.(61-70.serii).2010.XviD.SATRip.Thunder\Medvedi.sosedi.(63.seriya).Beskonechnyj.vyhodnoj.2010.XviD.SATRip.Thunder.avi
General
Complete name : J:\33333\Medvedi.sosedi.(1-50.serii).2010.XviD.SATRip.Thunder\Medvedi.sosedi.(61-70.serii).2010.XviD.SATRip.Thunder\Medvedi.sosedi.(63.seriya).Beskonechnyj.vyhodnoj.2010.XviD.SATRip.Thunder.avi
Format : AVI
Format/Info : Audio Video Interleave
File size : 177 MiB
Duration : 12mn 59s
Overall bit rate : 1 902 Kbps
Director : Rip by Thunder
Writing application : VirtualDubMod 1.5.10.3 | http://www.virtualdub-fr.org || (build 2550/release)
Video #0
ID : 0
Format : MPEG-4 Visual
Format profile : Advanced Simple@L5
Format settings, BVOP : 2
Format settings, QPel : No
Format settings, GMC : No warppoints
Format settings, Matrix : Default (MPEG)
Codec ID : XVID
Codec ID/Hint : XviD
Duration : 12mn 59s
Bit rate : 1 700 Kbps
Width : 704 pixels
Height : 400 pixels
Display aspect ratio : 16:9
Frame rate : 25.000 fps
Color space : YUV
Chroma subsampling : 4:2:0
Bit depth : 8 bits
Scan type : Progressive
Compression mode : Lossy
Bits/(Pixel*Frame) : 0.241
Stream size : 158 MiB (89%)
Writing library : XviD 1.2.1 (UTC 2008-12-04)
Audio #1
ID : 1
Format : AC-3
Format/Info : Audio Coding 3
Mode extension : CM (complete main)
Codec ID : 2000
Duration : 12mn 59s
Bit rate mode : Constant
Bit rate : 192 Kbps
Channel(s) : 2 channels
Channel positions : Front: L R
Sampling rate : 48.0 KHz
Bit depth : 16 bits
Compression mode : Lossy
Stream size : 17.9 MiB (10%)
Alignment : Split accross interleaves
Interleave, duration : 40 ms (1.00 video frame)
Interleave, preload duration : 500 ms





_________________




реклама партнёра


Вернуться к началу
 Профиль Отправить личное сообщение  
 
   Похожие торренты   Автор   Торрент   Размер 
В этой теме нет новых непрочитанных сообщений. Медведи-соседи / Boonie Bears, to the Rescue! [мультфильм, комедия, приключения, 2014] WEB-DLRip, Dub [iTunes]

Dracon

15 | 3

1.37 ГБ

В этой теме нет новых непрочитанных сообщений. Медведи-соседи / Boonie Bears, to the Rescue! [мультфильм, комедия, приключения, 2014] DVD5, Dub [Лицензия]

Dracon

115 | 43

4.21 ГБ

В этой теме нет новых непрочитанных сообщений. Медведи-соседи / Boonie Bears, to the Rescue! [мультфильм, комедия, приключения, 2014] WEB-DLRip 720p, Dub [iTunes]

Dracon

19 | 4

3.05 ГБ

В этой теме нет новых непрочитанных сообщений. Серебряные медведи / Silver Bears [комедия, криминал, 1978] DVDRip, Dvo

salma3

12 | 3

1.39 ГБ

В этой теме нет новых непрочитанных сообщений. Мы обычные медведи / We Bare Bears / 1 сезон, 0-26 [приключения, комедия, семейный, 2015] WEB-DLRip, Mvo

salma3

5 | 3

3.64 ГБ

В этой теме нет новых непрочитанных сообщений. Медведи / DisneyNature: Bears [документальный, 2014] Blu-ray EUR 1080p, Dub+Sub

Dracon

10 | 4

27.7 ГБ

В этой теме нет новых непрочитанных сообщений. Медведи / Bears [документальный, 2014] BDRip 720p, Dub+Sub [лицензия]

Dracon

2612 | 124

3.64 ГБ


Начать новую тему Ответить на тему  [ 1 сообщение ] 




Для Мосгорсуда, Роскомнадзора и рекламодателей:: mosgorsud-torrent[собачка]yandex.ru