Торрент файл
скачать торрент магнет ссылка Добавлен: 20 май 2012, 02:47
Размер: 1.73 ГБ
Сидеров: 2
Личеров: 3
Статус: (drink)
Автор

СообщениеДобавлено: 20 май 2012, 02:47 

Не в сети
5 Звёзд
Аватара пользователя
Дата регистрации:
20 апр 2012, 10:59
Возраст: 35
Спасибо: 941 / 102
Сообщения: 1292
Откуда: Москва

Название: Медведи - соседи
Оригинальное название: Boonie Bears
Год выпуска: 2010
Жанр: Мультсериал, комедия
Выпущено: Китай
Режиссер: Леон Динг

О фильме: Комедийный анимационный мультсериал про двух медведей - защитников леса. В прекрасном заповедном лесу мирно уживаются звери и птицы. Но однажды туда приходит злой и хитрый дровосек - он хочет полностью вырубить нетронутый лес! Хорошо, что лесные просторы охраняют храбрые и могучие медведи-соседи - вдвоем они справятся с любой опасностью и проучат подлого дровосека.

Качество: SATRip
Видео: XviD, ~ 1700 Кбит/с, 704x400
Аудио: АС3, 2 ch, 192 Кбит/с
Продолжительность: 10 x ~ 00:12:59
Перевод: Профессиональный (многоголосый закадровый)

51. Кувшин для медведей / Bear Jars
52. Вечеринка с пиццей / Pizza Party
53. Вик-миллионер / Logger Vick`s Hit the Jackpot
54. Спасите старое дерево / Saving an Ancient Tree
55. Моё секретное оружие / My Secret Weapon
56. Микроволновка Вика / Vick`s Microwave Oven
57. Зеркало, зеркало / Mirror, Mirror
58. Вик повсюду / Logger Vick`s Everywhere
59. Пила-монстр / Monster Chainsaw
60. Брамбл спасает деревья / Bramble Plants a Log
D:\Medvedi.sosedi.(51-60.serii).2010.XviD.SATRip.Thunder\Medvedi.sosedi.(51.seriya).Kuvshin.dlja.medvedej.2010.XviD.SATRip.Thunder.avi
General
Complete name : D:\Medvedi.sosedi.(51-60.serii).2010.XviD.SATRip.Thunder\Medvedi.sosedi.(51.seriya).Kuvshin.dlja.medvedej.2010.XviD.SATRip.Thunder.avi
Format : AVI
Format/Info : Audio Video Interleave
File size : 177 MiB
Duration : 13mn 0s
Overall bit rate : 1 902 Kbps
Director : Rip by Thunder
Writing application : VirtualDubMod 1.5.10.3 | http://www.virtualdub-fr.org || (build 2550/release)
Video #0
ID : 0
Format : MPEG-4 Visual
Format profile : Advanced Simple@L5
Format settings, BVOP : 2
Format settings, QPel : No
Format settings, GMC : No warppoints
Format settings, Matrix : Default (MPEG)
Codec ID : XVID
Codec ID/Hint : XviD
Duration : 13mn 0s
Bit rate : 1 700 Kbps
Width : 704 pixels
Height : 400 pixels
Display aspect ratio : 16:9
Frame rate : 25.000 fps
Color space : YUV
Chroma subsampling : 4:2:0
Bit depth : 8 bits
Scan type : Progressive
Compression mode : Lossy
Bits/(Pixel*Frame) : 0.241
Stream size : 158 MiB (89%)
Writing library : XviD 1.2.1 (UTC 2008-12-04)
Audio #1
ID : 1
Format : AC-3
Format/Info : Audio Coding 3
Mode extension : CM (complete main)
Codec ID : 2000
Duration : 13mn 0s
Bit rate mode : Constant
Bit rate : 192 Kbps
Channel(s) : 2 channels
Channel positions : Front: L R
Sampling rate : 48.0 KHz
Bit depth : 16 bits
Compression mode : Lossy
Stream size : 17.9 MiB (10%)
Alignment : Split accross interleaves
Interleave, duration : 40 ms (1.00 video frame)
Interleave, preload duration : 500 ms



D:\Medvedi.sosedi.(51-60.serii).2010.XviD.SATRip.Thunder\Medvedi.sosedi.(52.seriya).Vecherinka.s.piccej.2010.XviD.SATRip.Thunder.avi
General
Complete name : D:\Medvedi.sosedi.(51-60.serii).2010.XviD.SATRip.Thunder\Medvedi.sosedi.(52.seriya).Vecherinka.s.piccej.2010.XviD.SATRip.Thunder.avi
Format : AVI
Format/Info : Audio Video Interleave
File size : 177 MiB
Duration : 12mn 59s
Overall bit rate : 1 902 Kbps
Director : Rip by Thunder
Writing application : VirtualDubMod 1.5.10.3 | http://www.virtualdub-fr.org || (build 2550/release)
Video #0
ID : 0
Format : MPEG-4 Visual
Format profile : Advanced Simple@L5
Format settings, BVOP : 2
Format settings, QPel : No
Format settings, GMC : No warppoints
Format settings, Matrix : Default (MPEG)
Codec ID : XVID
Codec ID/Hint : XviD
Duration : 12mn 59s
Bit rate : 1 700 Kbps
Width : 704 pixels
Height : 400 pixels
Display aspect ratio : 16:9
Frame rate : 25.000 fps
Color space : YUV
Chroma subsampling : 4:2:0
Bit depth : 8 bits
Scan type : Progressive
Compression mode : Lossy
Bits/(Pixel*Frame) : 0.241
Stream size : 158 MiB (89%)
Writing library : XviD 1.2.1 (UTC 2008-12-04)
Audio #1
ID : 1
Format : AC-3
Format/Info : Audio Coding 3
Mode extension : CM (complete main)
Codec ID : 2000
Duration : 12mn 59s
Bit rate mode : Constant
Bit rate : 192 Kbps
Channel(s) : 2 channels
Channel positions : Front: L R
Sampling rate : 48.0 KHz
Bit depth : 16 bits
Compression mode : Lossy
Stream size : 17.8 MiB (10%)
Alignment : Split accross interleaves
Interleave, duration : 40 ms (1.00 video frame)
Interleave, preload duration : 500 ms


D:\Medvedi.sosedi.(51-60.serii).2010.XviD.SATRip.Thunder\Medvedi.sosedi.(53.seriya).Vik.millioner.2010.XviD.SATRip.Thunder.avi
General
Complete name : D:\Medvedi.sosedi.(51-60.serii).2010.XviD.SATRip.Thunder\Medvedi.sosedi.(53.seriya).Vik.millioner.2010.XviD.SATRip.Thunder.avi
Format : AVI
Format/Info : Audio Video Interleave
File size : 177 MiB
Duration : 12mn 59s
Overall bit rate : 1 902 Kbps
Director : Rip by Thunder
Writing application : VirtualDubMod 1.5.10.3 | http://www.virtualdub-fr.org || (build 2550/release)
Video #0
ID : 0
Format : MPEG-4 Visual
Format profile : Advanced Simple@L5
Format settings, BVOP : 2
Format settings, QPel : No
Format settings, GMC : No warppoints
Format settings, Matrix : Default (MPEG)
Codec ID : XVID
Codec ID/Hint : XviD
Duration : 12mn 59s
Bit rate : 1 700 Kbps
Width : 704 pixels
Height : 400 pixels
Display aspect ratio : 16:9
Frame rate : 25.000 fps
Color space : YUV
Chroma subsampling : 4:2:0
Bit depth : 8 bits
Scan type : Progressive
Compression mode : Lossy
Bits/(Pixel*Frame) : 0.241
Stream size : 158 MiB (89%)
Writing library : XviD 1.2.1 (UTC 2008-12-04)
Audio #1
ID : 1
Format : AC-3
Format/Info : Audio Coding 3
Mode extension : CM (complete main)
Codec ID : 2000
Duration : 12mn 59s
Bit rate mode : Constant
Bit rate : 192 Kbps
Channel(s) : 2 channels
Channel positions : Front: L R
Sampling rate : 48.0 KHz
Bit depth : 16 bits
Compression mode : Lossy
Stream size : 17.8 MiB (10%)
Alignment : Split accross interleaves
Interleave, duration : 40 ms (1.00 video frame)
Interleave, preload duration : 500 ms



D:\Medvedi.sosedi.(51-60.serii).2010.XviD.SATRip.Thunder\Medvedi.sosedi.(54.seriya).Spasite.staroe.derevo.2010.XviD.SATRip.Thunder.avi
General
Complete name : D:\Medvedi.sosedi.(51-60.serii).2010.XviD.SATRip.Thunder\Medvedi.sosedi.(54.seriya).Spasite.staroe.derevo.2010.XviD.SATRip.Thunder.avi
Format : AVI
Format/Info : Audio Video Interleave
File size : 177 MiB
Duration : 12mn 59s
Overall bit rate : 1 902 Kbps
Director : Rip by Thunder
Writing application : VirtualDubMod 1.5.10.3 | http://www.virtualdub-fr.org || (build 2550/release)
Video #0
ID : 0
Format : MPEG-4 Visual
Format profile : Advanced Simple@L5
Format settings, BVOP : 2
Format settings, QPel : No
Format settings, GMC : No warppoints
Format settings, Matrix : Default (MPEG)
Codec ID : XVID
Codec ID/Hint : XviD
Duration : 12mn 59s
Bit rate : 1 700 Kbps
Width : 704 pixels
Height : 400 pixels
Display aspect ratio : 16:9
Frame rate : 25.000 fps
Color space : YUV
Chroma subsampling : 4:2:0
Bit depth : 8 bits
Scan type : Progressive
Compression mode : Lossy
Bits/(Pixel*Frame) : 0.241
Stream size : 158 MiB (89%)
Writing library : XviD 1.2.1 (UTC 2008-12-04)
Audio #1
ID : 1
Format : AC-3
Format/Info : Audio Coding 3
Mode extension : CM (complete main)
Codec ID : 2000
Duration : 12mn 59s
Bit rate mode : Constant
Bit rate : 192 Kbps
Channel(s) : 2 channels
Channel positions : Front: L R
Sampling rate : 48.0 KHz
Bit depth : 16 bits
Compression mode : Lossy
Stream size : 17.9 MiB (10%)
Alignment : Split accross interleaves
Interleave, duration : 40 ms (1.00 video frame)
Interleave, preload duration : 500 ms


D:\Medvedi.sosedi.(51-60.serii).2010.XviD.SATRip.Thunder\Medvedi.sosedi.(55.seriya).Mojo.sekretnoe.oruzhie.2010.XviD.SATRip.Thunder.avi
General
Complete name : D:\Medvedi.sosedi.(51-60.serii).2010.XviD.SATRip.Thunder\Medvedi.sosedi.(55.seriya).Mojo.sekretnoe.oruzhie.2010.XviD.SATRip.Thunder.avi
Format : AVI
Format/Info : Audio Video Interleave
File size : 177 MiB
Duration : 12mn 59s
Overall bit rate : 1 902 Kbps
Director : Rip by Thunder
Writing application : VirtualDubMod 1.5.10.3 | http://www.virtualdub-fr.org || (build 2550/release)
Video #0
ID : 0
Format : MPEG-4 Visual
Format profile : Advanced Simple@L5
Format settings, BVOP : 2
Format settings, QPel : No
Format settings, GMC : No warppoints
Format settings, Matrix : Default (MPEG)
Codec ID : XVID
Codec ID/Hint : XviD
Duration : 12mn 59s
Bit rate : 1 700 Kbps
Width : 704 pixels
Height : 400 pixels
Display aspect ratio : 16:9
Frame rate : 25.000 fps
Color space : YUV
Chroma subsampling : 4:2:0
Bit depth : 8 bits
Scan type : Progressive
Compression mode : Lossy
Bits/(Pixel*Frame) : 0.241
Stream size : 158 MiB (89%)
Writing library : XviD 1.2.1 (UTC 2008-12-04)
Audio #1
ID : 1
Format : AC-3
Format/Info : Audio Coding 3
Mode extension : CM (complete main)
Codec ID : 2000
Duration : 12mn 59s
Bit rate mode : Constant
Bit rate : 192 Kbps
Channel(s) : 2 channels
Channel positions : Front: L R
Sampling rate : 48.0 KHz
Bit depth : 16 bits
Compression mode : Lossy
Stream size : 17.9 MiB (10%)
Alignment : Split accross interleaves
Interleave, duration : 40 ms (1.00 video frame)
Interleave, preload duration : 500 ms



D:\Medvedi.sosedi.(51-60.serii).2010.XviD.SATRip.Thunder\Medvedi.sosedi.(56.seriya).Mikrovolnovka.Vika.2010.XviD.SATRip.Thunder.avi
General
Complete name : D:\Medvedi.sosedi.(51-60.serii).2010.XviD.SATRip.Thunder\Medvedi.sosedi.(56.seriya).Mikrovolnovka.Vika.2010.XviD.SATRip.Thunder.avi
Format : AVI
Format/Info : Audio Video Interleave
File size : 177 MiB
Duration : 12mn 59s
Overall bit rate : 1 902 Kbps
Director : Rip by Thunder
Writing application : VirtualDubMod 1.5.10.3 | http://www.virtualdub-fr.org || (build 2550/release)
Video #0
ID : 0
Format : MPEG-4 Visual
Format profile : Advanced Simple@L5
Format settings, BVOP : 2
Format settings, QPel : No
Format settings, GMC : No warppoints
Format settings, Matrix : Default (MPEG)
Codec ID : XVID
Codec ID/Hint : XviD
Duration : 12mn 59s
Bit rate : 1 700 Kbps
Width : 704 pixels
Height : 400 pixels
Display aspect ratio : 16:9
Frame rate : 25.000 fps
Color space : YUV
Chroma subsampling : 4:2:0
Bit depth : 8 bits
Scan type : Progressive
Compression mode : Lossy
Bits/(Pixel*Frame) : 0.241
Stream size : 158 MiB (89%)
Writing library : XviD 1.2.1 (UTC 2008-12-04)
Audio #1
ID : 1
Format : AC-3
Format/Info : Audio Coding 3
Mode extension : CM (complete main)
Codec ID : 2000
Duration : 12mn 59s
Bit rate mode : Constant
Bit rate : 192 Kbps
Channel(s) : 2 channels
Channel positions : Front: L R
Sampling rate : 48.0 KHz
Bit depth : 16 bits
Compression mode : Lossy
Stream size : 17.8 MiB (10%)
Alignment : Split accross interleaves
Interleave, duration : 40 ms (1.00 video frame)
Interleave, preload duration : 500 ms



D:\Medvedi.sosedi.(51-60.serii).2010.XviD.SATRip.Thunder\Medvedi.sosedi.(57.seriya).Zerkalo.zerkalo.2010.XviD.SATRip.Thunder.avi
General
Complete name : D:\Medvedi.sosedi.(51-60.serii).2010.XviD.SATRip.Thunder\Medvedi.sosedi.(57.seriya).Zerkalo.zerkalo.2010.XviD.SATRip.Thunder.avi
Format : AVI
Format/Info : Audio Video Interleave
File size : 177 MiB
Duration : 12mn 59s
Overall bit rate : 1 902 Kbps
Director : Rip by Thunder
Writing application : VirtualDubMod 1.5.10.3 | http://www.virtualdub-fr.org || (build 2550/release)
Video #0
ID : 0
Format : MPEG-4 Visual
Format profile : Advanced Simple@L5
Format settings, BVOP : 2
Format settings, QPel : No
Format settings, GMC : No warppoints
Format settings, Matrix : Default (MPEG)
Codec ID : XVID
Codec ID/Hint : XviD
Duration : 12mn 59s
Bit rate : 1 700 Kbps
Width : 704 pixels
Height : 400 pixels
Display aspect ratio : 16:9
Frame rate : 25.000 fps
Color space : YUV
Chroma subsampling : 4:2:0
Bit depth : 8 bits
Scan type : Progressive
Compression mode : Lossy
Bits/(Pixel*Frame) : 0.241
Stream size : 158 MiB (89%)
Writing library : XviD 1.2.1 (UTC 2008-12-04)
Audio #1
ID : 1
Format : AC-3
Format/Info : Audio Coding 3
Mode extension : CM (complete main)
Codec ID : 2000
Duration : 12mn 59s
Bit rate mode : Constant
Bit rate : 192 Kbps
Channel(s) : 2 channels
Channel positions : Front: L R
Sampling rate : 48.0 KHz
Bit depth : 16 bits
Compression mode : Lossy
Stream size : 17.9 MiB (10%)
Alignment : Split accross interleaves
Interleave, duration : 40 ms (1.00 video frame)
Interleave, preload duration : 500 ms



D:\Medvedi.sosedi.(51-60.serii).2010.XviD.SATRip.Thunder\Medvedi.sosedi.(58.seriya).Vik.povsjudu.2010.XviD.SATRip.Thunder.avi
General
Complete name : D:\Medvedi.sosedi.(51-60.serii).2010.XviD.SATRip.Thunder\Medvedi.sosedi.(58.seriya).Vik.povsjudu.2010.XviD.SATRip.Thunder.avi
Format : AVI
Format/Info : Audio Video Interleave
File size : 177 MiB
Duration : 12mn 59s
Overall bit rate : 1 902 Kbps
Director : Rip by Thunder
Writing application : VirtualDubMod 1.5.10.3 | http://www.virtualdub-fr.org || (build 2550/release)
Video #0
ID : 0
Format : MPEG-4 Visual
Format profile : Advanced Simple@L5
Format settings, BVOP : 2
Format settings, QPel : No
Format settings, GMC : No warppoints
Format settings, Matrix : Default (MPEG)
Codec ID : XVID
Codec ID/Hint : XviD
Duration : 12mn 59s
Bit rate : 1 700 Kbps
Width : 704 pixels
Height : 400 pixels
Display aspect ratio : 16:9
Frame rate : 25.000 fps
Color space : YUV
Chroma subsampling : 4:2:0
Bit depth : 8 bits
Scan type : Progressive
Compression mode : Lossy
Bits/(Pixel*Frame) : 0.241
Stream size : 158 MiB (89%)
Writing library : XviD 1.2.1 (UTC 2008-12-04)
Audio #1
ID : 1
Format : AC-3
Format/Info : Audio Coding 3
Mode extension : CM (complete main)
Codec ID : 2000
Duration : 12mn 59s
Bit rate mode : Constant
Bit rate : 192 Kbps
Channel(s) : 2 channels
Channel positions : Front: L R
Sampling rate : 48.0 KHz
Bit depth : 16 bits
Compression mode : Lossy
Stream size : 17.8 MiB (10%)
Alignment : Split accross interleaves
Interleave, duration : 40 ms (1.00 video frame)
Interleave, preload duration : 500 ms



D:\Medvedi.sosedi.(51-60.serii).2010.XviD.SATRip.Thunder\Medvedi.sosedi.(59.seriya).Pila.monstr.2010.XviD.SATRip.Thunder.avi
General
Complete name : D:\Medvedi.sosedi.(51-60.serii).2010.XviD.SATRip.Thunder\Medvedi.sosedi.(59.seriya).Pila.monstr.2010.XviD.SATRip.Thunder.avi
Format : AVI
Format/Info : Audio Video Interleave
File size : 177 MiB
Duration : 12mn 59s
Overall bit rate : 1 902 Kbps
Director : Rip by Thunder
Writing application : VirtualDubMod 1.5.10.3 | http://www.virtualdub-fr.org || (build 2550/release)
Video #0
ID : 0
Format : MPEG-4 Visual
Format profile : Advanced Simple@L5
Format settings, BVOP : 2
Format settings, QPel : No
Format settings, GMC : No warppoints
Format settings, Matrix : Default (MPEG)
Codec ID : XVID
Codec ID/Hint : XviD
Duration : 12mn 59s
Bit rate : 1 700 Kbps
Width : 704 pixels
Height : 400 pixels
Display aspect ratio : 16:9
Frame rate : 25.000 fps
Color space : YUV
Chroma subsampling : 4:2:0
Bit depth : 8 bits
Scan type : Progressive
Compression mode : Lossy
Bits/(Pixel*Frame) : 0.241
Stream size : 158 MiB (89%)
Writing library : XviD 1.2.1 (UTC 2008-12-04)
Audio #1
ID : 1
Format : AC-3
Format/Info : Audio Coding 3
Mode extension : CM (complete main)
Codec ID : 2000
Duration : 12mn 59s
Bit rate mode : Constant
Bit rate : 192 Kbps
Channel(s) : 2 channels
Channel positions : Front: L R
Sampling rate : 48.0 KHz
Bit depth : 16 bits
Compression mode : Lossy
Stream size : 17.9 MiB (10%)
Alignment : Split accross interleaves
Interleave, duration : 40 ms (1.00 video frame)
Interleave, preload duration : 500 ms


D:\Medvedi.sosedi.(51-60.serii).2010.XviD.SATRip.Thunder\Medvedi.sosedi.(60.seriya).Brambl.spasaet.derevja.2010.XviD.SATRip.Thunder.avi
General
Complete name : D:\Medvedi.sosedi.(51-60.serii).2010.XviD.SATRip.Thunder\Medvedi.sosedi.(60.seriya).Brambl.spasaet.derevja.2010.XviD.SATRip.Thunder.avi
Format : AVI
Format/Info : Audio Video Interleave
File size : 177 MiB
Duration : 12mn 59s
Overall bit rate : 1 902 Kbps
Director : Rip by Thunder
Writing application : VirtualDubMod 1.5.10.3 | http://www.virtualdub-fr.org || (build 2550/release)
Video #0
ID : 0
Format : MPEG-4 Visual
Format profile : Advanced Simple@L5
Format settings, BVOP : 2
Format settings, QPel : No
Format settings, GMC : No warppoints
Format settings, Matrix : Default (MPEG)
Codec ID : XVID
Codec ID/Hint : XviD
Duration : 12mn 59s
Bit rate : 1 700 Kbps
Width : 704 pixels
Height : 400 pixels
Display aspect ratio : 16:9
Frame rate : 25.000 fps
Color space : YUV
Chroma subsampling : 4:2:0
Bit depth : 8 bits
Scan type : Progressive
Compression mode : Lossy
Bits/(Pixel*Frame) : 0.241
Stream size : 158 MiB (89%)
Writing library : XviD 1.2.1 (UTC 2008-12-04)
Audio #1
ID : 1
Format : AC-3
Format/Info : Audio Coding 3
Mode extension : CM (complete main)
Codec ID : 2000
Duration : 12mn 59s
Bit rate mode : Constant
Bit rate : 192 Kbps
Channel(s) : 2 channels
Channel positions : Front: L R
Sampling rate : 48.0 KHz
Bit depth : 16 bits
Compression mode : Lossy
Stream size : 17.8 MiB (10%)
Alignment : Split accross interleaves
Interleave, duration : 40 ms (1.00 video frame)
Interleave, preload duration : 500 ms





_________________




реклама партнёра


Вернуться к началу
 Профиль Отправить личное сообщение  
 
   Похожие торренты   Автор   Торрент   Размер 
В этой теме нет новых непрочитанных сообщений. Медведи-соседи / Boonie Bears, to the Rescue! [мультфильм, комедия, приключения, 2014] DVD5, Dub [Лицензия]

Dracon

115 | 43

4.21 ГБ

В этой теме нет новых непрочитанных сообщений. Медведи-соседи / Boonie Bears, to the Rescue! [мультфильм, комедия, приключения, 2014] WEB-DLRip, Dub [iTunes]

Dracon

15 | 3

1.37 ГБ

В этой теме нет новых непрочитанных сообщений. Медведи-соседи / Boonie Bears, to the Rescue! [мультфильм, комедия, приключения, 2014] WEB-DLRip 720p, Dub [iTunes]

Dracon

19 | 4

3.05 ГБ

В этой теме нет новых непрочитанных сообщений. Серебряные медведи / Silver Bears [комедия, криминал, 1978] DVDRip, Dvo

salma3

12 | 3

1.39 ГБ

В этой теме нет новых непрочитанных сообщений. Мы обычные медведи / We Bare Bears / 1 сезон, 0-26 [приключения, комедия, семейный, 2015] WEB-DLRip, Mvo

salma3

5 | 3

3.64 ГБ

В этой теме нет новых непрочитанных сообщений. Медведи / DisneyNature: Bears [документальный, 2014] Blu-ray EUR 1080p, Dub+Sub

Dracon

10 | 4

27.7 ГБ

В этой теме нет новых непрочитанных сообщений. Медведи / Bears [документальный, 2014] BDRip 720p, Dub+Sub [лицензия]

Dracon

2612 | 124

3.64 ГБ


Начать новую тему Ответить на тему  [ 1 сообщение ] 




Для Мосгорсуда, Роскомнадзора и рекламодателей:: mosgorsud-torrent[собачка]yandex.ru