Торрент файл
скачать торрент магнет ссылка Добавлен: 01 май 2012, 10:36
Размер: 2.54 ГБ
Сидеров: 167
Личеров: 12
Статус: (Dracon)
Автор

СообщениеДобавлено: 01 май 2012, 10:36 

Не в сети
Зам. Админа
Аватара пользователя
Дата регистрации:
02 дек 2010, 12:39
Спасибо: 12461 / 214
Сообщения: 27968

Год выхода: 2008-2011
Жанр: Мультфильм, семейный
Режиссер: Роб Гиббс, Джон Лассетер, Victor Navone
В ролях: Ларри Кейбл Гай, Кейт Фергюсон, Элисса Найт, Микки Макгоун, Жан Рэбсон, Боб Скотт, Лори Алан, Джон Циган, Гуидо Куарони, Джек Эйнджел

О фильме:
Главный герой этих историй, друг гонщика Молнии МакКвин — грузовичок «Мэтр» из городка Радиатор-Спрингс. В своих рассказах он предстаёт перед зрителем в неповторимых образах лихого спасателя, дипломированного доктора, расскажет о том как он был звездой каскадерского авто-шоу, и победителем среди стритрейсеров на автогонках в Токио. Мэтр выдумывает нереальные истории, в которые то и дело втягивает своего товарища МакКвина. При этом Молнии далеко не всегда в историях Метра достаются удачные роли…


Автор рипов: K.A.F.

Страна: США
Студия: Pixar Animation Studios
Продолжительность: 00:43:42
Перевод: Дублированный + Оригинал

Сезон 1:
Эпизод 1: Мэтр, Команда Спасения / Rescue Squad Mater- (00:02:53)
Эпизод 2: Мэтр, Каскадёр / Mater the Greater- (00:03:53)
Эпизод 3: Эль Мэтрдор / El Materdor- (00:03:38)

Сезон 2:
Эпизод 1: Неопознанный Летающий Мэтр / Unidentified Flying Mater - (00:04:18)
Эпизод 2: Токио Мэтр / Tokyo Mater- (00:06:56)
Эпизод 3: Мэтр, Великий Рестлер / Monster Truck Mater- (00:04:18)
Эпизод 4: Мэтр, Металлист / Heavy Metal Mater- (00:03:34)
Эпизод 5: Мэтр На Луне / Moon Mater- (00:04:08)
Эпизод 6: Детектив Мэтр / Mater Private Eye- (00:04:38)

Сезон 3:
Эпизод 1: Аэро Мэтр / Air Mater- (00:05:26)


Кодек: x264
Качество: BDRip 1080p (источник: Blu-Ray Remux / 1080p)
Видео: 1920х1080 (16:9), 6890 Kbps, 23.976 fps, 0.139 bit/pixel
Аудио #1: 48.0 kHz, AC3 Dolby Digital, 3/2 (L,C,R,l,r) + LFE ch, 640 Kbps [Rus]
Аудио #2: 48.0 kHz, AC3 Dolby Digital, 3/2 (L,C,R,l,r) + LFE ch, 640 Kbps [Eng]
Субтитры: Rus forced, Rus full, Eng

Семпл



У всех эпизодов одинаковые параметры кодирования, кроме эпизода Аэро Мэтр / Air Mater битрейт видео 8000 Kbps

General
Unique ID: 223189269229142880924886117451771073743 (0xA7E8B08F5B0104E3895B0E802F06D4CF)
Complete name: C:Multachki.Bajki.Metra[Season 1-3]2008-2011.x264.BDRip.1080pUnidentified.Flying.Mater.2009.x264.BDRip.1080p.mkv
Format: Matroska
Format version: Version 2
File size: 252 MiB
Duration: 4mn 18s
Overall bit rate: 8 183 Kbps
Encoded date: UTC 2012-04-30 11:38:47
Writing application: mkvmerge v5.5.0 ('Healer') built on Apr6 2012 21:43:24
Writing library: libebml v1.2.3 + libmatroska v1.3.0

Video
ID: 1
Format: AVC
Format/Info: Advanced Video Codec
Format profile: High@L4.1
Format settings, CABAC: Yes
Format settings, ReFrames: 4 frames
Codec ID: V_MPEG4/ISO/AVC
Duration: 4mn 18s
Bit rate: 6 890 Kbps
Width: 1 920 pixels
Height: 1 080 pixels
Display aspect ratio: 16:9
Frame rate: 23.976 fps
Color space: YUV
Chroma subsampling: 4:2:0
Bit depth: 8 bits
Scan type: Progressive
Bits/(Pixel*Frame): 0.139
Stream size: 207 MiB (82%)
Writing library: x264 core 122 r2184 5c85e0a
Encoding settings: cabac=1 / ref=4 / deblock=1:0:0 / analyse=0x3:0x133 / me=umh / subme=11 / psy=1 / psy_rd=1.00:0.00 / mixed_ref=1 / me_range=64 / chroma_me=1 / trellis=2 / 8x8dct=1 / cqm=0 / deadzone=21,11 / fast_pskip=0 / chroma_qp_offset=-2 / threads=1 / sliced_threads=0 / nr=0 / decimate=1 / interlaced=0 / bluray_compat=0 / constrained_intra=0 / bframes=5 / b_pyramid=2 / b_adapt=2 / b_bias=0 / direct=3 / weightb=1 / open_gop=0 / weightp=2 / keyint=250 / keyint_min=23 / scenecut=40 / intra_refresh=0 / rc_lookahead=60 / rc=2pass / mbtree=1 / bitrate=6890 / ratetol=1.0 / qcomp=0.60 / qpmin=7 / qpmax=54 / qpstep=4 / cplxblur=20.0 / qblur=0.5 / vbv_maxrate=50000 / vbv_bufsize=62500 / nal_hrd=none / ip_ratio=1.40 / aq=2:0.80
Language: English
Default: Yes
Forced: No

Audio #1
ID: 2
Format: AC-3
Format/Info: Audio Coding 3
Mode extension: CM (complete main)
Codec ID: A_AC3
Duration: 4mn 18s
Bit rate mode: Constant
Bit rate: 640 Kbps
Channel(s): 6 channels
Channel positions: Front: L C R, Side: L R, LFE
Sampling rate: 48.0 KHz
Bit depth: 16 bits
Compression mode: Lossy
Stream size: 19.7 MiB (8%)
Title: AC3 5.1ch 640 kbps - Дубляж
Language: Russian
Default: Yes
Forced: No

Audio #2
ID: 3
Format: AC-3
Format/Info: Audio Coding 3
Mode extension: CM (complete main)
Codec ID: A_AC3
Duration: 4mn 18s
Bit rate mode: Constant
Bit rate: 640 Kbps
Channel(s): 6 channels
Channel positions: Front: L C R, Side: L R, LFE
Sampling rate: 48.0 KHz
Bit depth: 16 bits
Compression mode: Lossy
Stream size: 19.7 MiB (8%)
Title: AC3 5.1 ch 640 kbps Оригинал
Language: English
Default: No
Forced: No

Text #1
ID: 4
Format: UTF-8
Codec ID: S_TEXT/UTF8
Codec ID/Info: UTF-8 Plain Text
Title: forced
Language: Russian
Default: Yes
Forced: No

Text #2
ID: 5
Format: UTF-8
Codec ID: S_TEXT/UTF8
Codec ID/Info: UTF-8 Plain Text
Title: full
Language: Russian
Default: No
Forced: No

Text #3
ID: 6
Format: UTF-8
Codec ID: S_TEXT/UTF8
Codec ID/Info: UTF-8 Plain Text
Language: English
Default: No
Forced: No




реклама партнёра


Вернуться к началу
 Профиль  
 
   Похожие торренты   Автор   Торрент   Размер 
В этой теме нет новых непрочитанных сообщений. Байки из склепа: Демон ночи / Tales from the Crypt: Demon Knight [ужасы, фэнтези, триллер, комедия, 1995] BDRip 1080p, mvo+avo+sub

salma3

53 | 8

7.75 ГБ

В этой теме нет новых непрочитанных сообщений. Сезон охоты: Байки из леса / Open Season: Scared Silly [мультфильм, комедия, приключения, семейный, 2016] Blu-ray 1080p, 2Dub

salma3

19 | 7

22.04 ГБ

В этой теме нет новых непрочитанных сообщений. Сезон охоты: Байки из леса / Open Season: Scared Silly [мультфильм, комедия, приключения, семейный, 2015] HDRip, Dub

salma3

293 | 11

1.37 ГБ

В этой теме нет новых непрочитанных сообщений. Байки из склепа / Tales from the Crypt [ужасы, фэнтези, триллер, комедия, криминал, детектив, 1989] DVD5, Avo

salma3

1 | 3

4.18 ГБ

В этой теме нет новых непрочитанных сообщений. Байки из склепа: Демон ночи / Tales from the Crypt: Demon Knight [ужасы, фэнтези, триллер, комедия, 1995] HDRip, Mvo [R5]

salma3

31 | 6

1.46 ГБ

В этой теме нет новых непрочитанных сообщений. Кунг-фу Панда:Трилогия / Kung Fu Panda:Trilogy (Марк Осборн, Джон Стивенсон,Алессандро Карлони, Дженнифер Ю) [2008-2016, Мультфильм, боевик, комедия, приключения, семейный , BDRip 1080p] [DD5.1] [Dub Rus , Ukr , Eng]+[Sub Rus , Ukr , Eng][

Враг Нароода

3 | 7

27.41 ГБ

В этой теме нет новых непрочитанных сообщений. Игра на высоте / When the Game Stands Tall [драма, спорт, 2014] BDRip 1080p, Mvo [iTunes]

Dracon

1 | 2

9.81 ГБ


Начать новую тему Ответить на тему  [ 1 сообщение ] 




Для Мосгорсуда, Роскомнадзора и рекламодателей:: mosgorsud-torrent[собачка]yandex.ru