Торрент файл
скачать торрент магнет ссылка Добавлен: 31 мар 2012, 20:04
Размер: 16.81 ГБ
Сидеров: 12
Личеров: 7
Статус: (Dracon)
Автор

СообщениеДобавлено: 31 мар 2012, 20:04 

Не в сети
Зам. Админа
Аватара пользователя
Дата регистрации:
02 дек 2010, 12:39
Спасибо: 12461 / 214
Сообщения: 27968

Год выхода: 2007
Жанр:мультфильм, фэнтези, комедия, семейный, музыка
Режиссер: Тим Хилл
В ролях:Джейсон Ли, Дэвид Кросс, Кэмерон Ричардсон, Джейн Линч, Оливер Мьюрхед, Вероника Алисино

О фильме
Поэт-песенник Дэвид Севилль решает сделать из поющих бурундуков поп-звезд мирового масштаба. Но веселые грызуны Элвин, Саймон и Теодор не желают подчиняться талантливому благодетелю. Они устраивают в доме Дэвида хаос, опустошают съестные припасы и доводят близких поэта до исступления. В музыкальной студии бурундуки тоже переворачивают все вверх дном, что приводит к увольнению Севилля с работы и краху его музыкальной карьеры...



Cэмпл

Продолжительность: 01:31:13
Перевод: Профессиональный (полное дублирование)
Выпущено: США,Fox 2000 Pictures

Качество: BDRip 1080p (исходник Blu-ray)
Видео: 1920x1040,6852 Кбит/сек, 23.976 кадр/сек, AVC, x264, 2.35:1, 0.121 Бит/(Пиксели*Кадры)
Аудио: AC-3, 384 Кбит/сек, 6 канала(ов), 48,0 КГц
чаптеры: Есть
Размер: 4.36 Гб

Отдельно
+Аудио: AC-3, 384 Кбит/сек, 6 канала(ов), 48,0 КГц (оригинал, английский)
+Аудио: AC-3, 384 Кбит/сек, 6 канала(ов), 48,0 КГц (Czech)
+Аудио: AC-3, 384 Кбит/сек, 6 канала(ов), 48,0 КГц (Hungarian)
+Аудио: AC-3, 384 Кбит/сек, 6 канала(ов), 48,0 КГц (Italian)
+Аудио: AC-3, 384 Кбит/сек, 6 канала(ов), 48,0 КГц (Polish)
+Аудио: AC-3, 384 Кбит/сек, 6 канала(ов), 48,0 КГц (Portuguese)
+Аудио: AC-3, 384 Кбит/сек, 6 канала(ов), 48,0 КГц (Spanish)


Релиз Группа | Автор Рипа: mitrian



Format: Matroska
Format version: Version 2
File size: 4.37 GiB
Duration: 1h 31mn
Overall bit rate: 6 852 Kbps
Movie name: Rip by mitrian (NOLIMITS-TEAM.RU)
Encoded date: UTC 2012-03-30 17:36:55
Writing application: mkvmerge v5.4.0 ('Piper') built on Mar 10 2012 13:34:39
Writing library: libebml v1.2.3 + libmatroska v1.3.0

Video
ID: 1
Format: AVC
Format/Info: Advanced Video Codec
Format profile: High@L4.1
Format settings, CABAC: Yes
Format settings, ReFrames: 4 frames
Codec ID: V_MPEG4/ISO/AVC
Duration: 1h 31mn
Bit rate: 6 477 Kbps
Width: 1 920 pixels
Height: 1 040 pixels
Display aspect ratio: 1.850
Frame rate: 23.976 fps
Color space: YUV
Chroma subsampling: 4:2:0
Bit depth: 8 bits
Scan type: Progressive
Bits/(Pixel*Frame): 0.135
Stream size: 4.03 GiB (92%)
Title: Элвин и бурундуки.(2007).BDRip1080p от NOLIMITS-TEAM.RU
Writing library: x264 core 122 r2183 c522ad1
Encoding settings: cabac=1 / ref=4 / deblock=1:-3:-2 / analyse=0x3:0x133 / me=umh / subme=10 / psy=1 / psy_rd=1.00:0.15 / mixed_ref=1 / me_range=32 / chroma_me=1 / trellis=2 / 8x8dct=1 / cqm=0 / deadzone=21,11 / fast_pskip=0 / chroma_qp_offset=-3 / threads=6 / sliced_threads=0 / slices=4 / nr=0 / decimate=0 / interlaced=0 / bluray_compat=0 / constrained_intra=0 / bframes=5 / b_pyramid=2 / b_adapt=2 / b_bias=0 / direct=3 / weightb=1 / open_gop=0 / weightp=2 / keyint=240 / keyint_min=24 / scenecut=40 / intra_refresh=0 / rc_lookahead=60 / rc=2pass / mbtree=1 / bitrate=6477 / ratetol=2.0 / qcomp=0.60 / qpmin=0 / qpmax=51 / qpstep=4 / cplxblur=20.0 / qblur=0.5 / ip_ratio=1.40 / aq=2:1.00
Language: English
Default: Yes
Forced: No

Audio
ID: 2
Format: AC-3
Format/Info: Audio Coding 3
Mode extension: CM (complete main)
Codec ID: A_AC3
Duration: 1h 31mn
Bit rate mode: Constant
Bit rate: 384 Kbps
Channel(s): 6 channels
Channel positions: Front: L C R, Side: L R, LFE
Sampling rate: 48.0 KHz
Bit depth: 16 bits
Compression mode: Lossy
Stream size: 251 MiB (6%)
Title: Русский
Default: Yes
Forced: No

Menu
00:00:00.000: en:00:00:00.000
00:03:03.141: en:00:03:03.141
00:05:09.601: en:00:05:09.601
00:08:46.484: en:00:08:46.484
00:10:48.565: en:00:10:48.565
00:14:12.894: en:00:14:12.894
00:16:33.034: en:00:16:33.034
00:20:54.587: en:00:20:54.587
00:25:21.353: en:00:25:21.353
00:27:44.371: en:00:27:44.371
00:34:03.291: en:00:34:03.291
00:37:56.065: en:00:37:56.065
00:40:09.782: en:00:40:09.782
00:43:35.863: en:00:43:35.863
00:44:58.779: en:00:44:58.779
00:50:49.213: en:00:50:49.213
00:57:57.140: en:00:57:57.140
01:01:32.397: en:01:01:32.397
01:04:49.010: en:01:04:49.010
01:06:18.433: en:01:06:18.433
01:08:29.188: en:01:08:29.188
01:11:49.764: en:01:11:49.764
01:14:14.992: en:01:14:14.992
01:17:12.461: en:01:17:12.461
01:20:28.449: en:01:20:28.449
01:22:00.958: en:01:22:00.958
01:25:26.246: en:01:25:26.246
01:26:17.047: en:01:26:17.047





Год выхода: 2009
Жанр:мультфильм, фэнтези, комедия, семейный, музыка
Режиссер:Бетти Томас
В ролях:Джейсон Ли, Захари Леви, Дэвид Кросс, Джастин Лонг, Кристина Эпплгейт, Анна Фарис

О фильме
Три веселых бурундука Элвин, Саймон и Теодор поступают в школу, где их ждут новые приключения. Им придется столкнуться с множеством преград со стороны одноклассников. Но самое главное — их ожидает соперничество с новой музыкальной командой, состоящей из девочек-бурундуков, которое впоследствии перерастет в большую дружбу.



Выпущено: США, Bagdasarian Productions
Продолжительность: 01:20:09
Озвучивание: Дублированный (Лицензия, Blu-ray)

Качество: BDRip 1080p (исходник Blu-ray)
Видео: 1920x1040,7427 Кбит/сек, 23.976 кадр/сек, AVC, x264, 2.35:1, 0.121 Бит/(Пиксели*Кадры)
Аудио: AC-3, 384 Кбит/сек, 6 канала(ов), 48,0 КГц
чаптеры: Есть
Размер: 4.36 Гб

Отдельно
+Аудио: AC-3, 384 Кбит/сек, 6 канала(ов), 48,0 КГц (оригинал, английский)
+Аудио: AC-3, 384 Кбит/сек, 6 канала(ов), 48,0 КГц (украинский)
+Аудио: AC-3, 384 Кбит/сек, 6 канала(ов), 48,0 КГц (Греческий)
+Аудио: AC-3, 384 Кбит/сек, 6 канала(ов), 48,0 КГц (Литовский)
+Аудио: AC-3, 384 Кбит/сек, 6 канала(ов), 48,0 КГц (Турецкий)
+Аудио: AC-3, 384 Кбит/сек, 6 канала(ов), 48,0 КГц (Эстонский)

Cэмпл

Релиз Группа | Автор Рипа: mitrian



Format: Matroska
Format version: Version 2
File size: 4.37 GiB
Duration: 1h 20mn
Overall bit rate: 7 812 Kbps
Movie name: Rip by mitrian (NOLIMITS-TEAM.RU)
Encoded date: UTC 2012-03-30 17:51:16
Writing application: mkvmerge v5.4.0 ('Piper') built on Mar 10 2012 13:34:39
Writing library: libebml v1.2.3 + libmatroska v1.3.0

Video
ID: 1
Format: AVC
Format/Info: Advanced Video Codec
Format profile: High@L4.1
Format settings, CABAC: Yes
Format settings, ReFrames: 4 frames
Codec ID: V_MPEG4/ISO/AVC
Duration: 1h 20mn
Bit rate: 7 427 Kbps
Width: 1 920 pixels
Height: 1 040 pixels
Display aspect ratio: 1.850
Frame rate: 23.976 fps
Color space: YUV
Chroma subsampling: 4:2:0
Bit depth: 8 bits
Scan type: Progressive
Bits/(Pixel*Frame): 0.155
Stream size: 4.07 GiB (93%)
Title: Элвин и бурундуки 2.(2009).BDRip1080p.NOLIMITS-TEAM.RU
Writing library: x264 core 122 r2183 c522ad1
Encoding settings: cabac=1 / ref=4 / deblock=1:-3:-2 / analyse=0x3:0x133 / me=umh / subme=10 / psy=1 / psy_rd=1.00:0.15 / mixed_ref=1 / me_range=32 / chroma_me=1 / trellis=2 / 8x8dct=1 / cqm=0 / deadzone=21,11 / fast_pskip=0 / chroma_qp_offset=-3 / threads=6 / sliced_threads=0 / slices=4 / nr=0 / decimate=0 / interlaced=0 / bluray_compat=0 / constrained_intra=0 / bframes=5 / b_pyramid=2 / b_adapt=2 / b_bias=0 / direct=3 / weightb=1 / open_gop=0 / weightp=2 / keyint=240 / keyint_min=24 / scenecut=40 / intra_refresh=0 / rc_lookahead=60 / rc=2pass / mbtree=1 / bitrate=7427 / ratetol=2.0 / qcomp=0.60 / qpmin=0 / qpmax=51 / qpstep=4 / cplxblur=20.0 / qblur=0.5 / ip_ratio=1.40 / aq=2:1.00
Language: English
Default: Yes
Forced: No

Audio
ID: 2
Format: AC-3
Format/Info: Audio Coding 3
Mode extension: CM (complete main)
Codec ID: A_AC3
Duration: 1h 20mn
Bit rate mode: Constant
Bit rate: 384 Kbps
Channel(s): 6 channels
Channel positions: Front: L C R, Side: L R, LFE
Sampling rate: 48.0 KHz
Bit depth: 16 bits
Compression mode: Lossy
Stream size: 220 MiB (5%)
Title: Русский
Default: Yes
Forced: No

Menu
00:00:00.000: en:00:00:00.000
00:01:52.237: en:00:01:52.237
00:03:11.608: en:00:03:11.608
00:05:12.938: en:00:05:12.938
00:08:11.533: en:00:08:11.533
00:11:25.226: en:00:11:25.226
00:14:18.983: en:00:14:18.983
00:16:20.605: en:00:16:20.605
00:21:41.425: en:00:21:41.425
00:26:26.001: en:00:26:26.001
00:28:29.333: en:00:28:29.333
00:31:18.085: en:00:31:18.085
00:35:15.739: en:00:35:15.739
00:39:38.626: en:00:39:38.626
00:42:49.484: en:00:42:49.484
00:44:59.739: en:00:44:59.739
00:48:25.402: en:00:48:25.402
00:54:13.459: en:00:54:13.459
00:56:37.519: en:00:56:37.519
00:59:06.251: en:00:59:06.251
01:02:32.999: en:01:02:32.999
01:06:31.946: en:01:06:31.946
01:10:49.745: en:01:10:49.745
01:14:49.735: en:01:14:49.735
01:16:41.055: en:01:16:41.055
00:00:11.651: en:00:00:11.651
00:01:26.642: en:00:01:26.642
00:02:26.160: en:00:02:26.160
00:08:37.114: en:00:08:37.114





Год выхода: 2011
Жанр:мультфильм, фэнтези, комедия, семейный, музыка
Режиссер: Майк Митчел
В ролях:Джейсон Ли, Дэвид Кросс, Дженни Слейт, Джастин Лонг, Мэттью Грей Гублер, Джесси МакКартни, Эми Полер, Анна Фэрис, Кристина Эпплгейт, Алан Тьюдик

О фильме: Приключения троицы непоседливых братьев-бурундуков продолжаются! Элвин, Саймон и Теодор, а также их подруги бурундушки, просто не могут оставаться в стороне от различного рода неприятностей, сулящих им новые увлекательные приключения. Что на этот раз уготовила судьба нашим героям, и как они выпутаются из очередной передряги - вот в чём вопрос.




Выпущено:Fox 2000 Pictures, Regency Enterprises, Bagdasarian Productions (США)
Продолжительность: 01:27:09
Озвучивание: Дублированный (Лицензия, Blu-ray)

Качество: BDRip 1080p (исходник Blu-ray)
Видео: 1920x1040,6798 Кбит/сек, 23.976 кадр/сек, AVC, x264, 2.35:1, 0.121 Бит/(Пиксели*Кадры)
Аудио: AC-3, 384 Кбит/сек, 6 канала(ов), 48,0 КГц
чаптеры: Есть
Размер: 4.36 Гб

Отдельно
+Аудио: AC-3, 384 Кбит/сек, 6 канала(ов), 48,0 КГц (оригинал, английский)
+Аудио: AC-3, 384 Кбит/сек, 6 канала(ов), 48,0 КГц (дублированный, украинский)
+Аудио: AC-3, 384 Кбит/сек, 6 канала(ов), 48,0 КГц (дублированный, Француский)

Cэмпл

Релиз Группа | Автор Рипа: mitrian



Format: Matroska
Format version: Version 2
File size: 4.36 GiB
Duration: 1h 27mn
Overall bit rate: 7 164 Kbps
Movie name: Rip by mitrian (NOLIMITS-TEAM.RU)
Encoded date: UTC 2012-03-24 17:08:55
Writing application: mkvmerge v5.4.0 ('Piper') built on Mar 10 2012 13:34:39
Writing library: libebml v1.2.3 + libmatroska v1.3.0

Video
ID: 1
Format: AVC
Format/Info: Advanced Video Codec
Format profile: High@L4.1
Format settings, CABAC: Yes
Format settings, ReFrames: 4 frames
Codec ID: V_MPEG4/ISO/AVC
Duration: 1h 27mn
Bit rate: 6 798 Kbps
Width: 1 920 pixels
Height: 1 040 pixels
Display aspect ratio: 1.850
Frame rate: 23.976 fps
Color space: YUV
Chroma subsampling: 4:2:0
Bit depth: 8 bits
Scan type: Progressive
Bits/(Pixel*Frame): 0.142
Stream size: 4.04 GiB (93%)
Title: Элвин и бурундуки 3.BDRip1080p.NOLIMITS-TEAM.RU
Writing library: x264 core 122 r2183 c522ad1
Encoding settings: cabac=1 / ref=4 / deblock=1:-3:-2 / analyse=0x3:0x133 / me=umh / subme=10 / psy=1 / psy_rd=1.00:0.15 / mixed_ref=1 / me_range=32 / chroma_me=1 / trellis=2 / 8x8dct=1 / cqm=0 / deadzone=21,11 / fast_pskip=0 / chroma_qp_offset=-3 / threads=6 / sliced_threads=0 / slices=4 / nr=0 / decimate=0 / interlaced=0 / bluray_compat=0 / constrained_intra=0 / bframes=5 / b_pyramid=2 / b_adapt=2 / b_bias=0 / direct=3 / weightb=1 / open_gop=0 / weightp=2 / keyint=240 / keyint_min=24 / scenecut=40 / intra_refresh=0 / rc_lookahead=60 / rc=2pass / mbtree=1 / bitrate=6798 / ratetol=2.0 / qcomp=0.60 / qpmin=0 / qpmax=51 / qpstep=4 / cplxblur=20.0 / qblur=0.5 / ip_ratio=1.40 / aq=2:1.00
Default: Yes
Forced: No

Audio
ID: 2
Format: AC-3
Format/Info: Audio Coding 3
Mode extension: CM (complete main)
Codec ID: A_AC3
Duration: 1h 27mn
Bit rate mode: Constant
Bit rate: 384 Kbps
Channel(s): 6 channels
Channel positions: Front: L C R, Side: L R, LFE
Sampling rate: 48.0 KHz
Bit depth: 16 bits
Compression mode: Lossy
Stream size: 239 MiB (5%)
Title: Дубляж
Default: Yes
Forced: No

Menu
00:00:00.000: :Chapter 01
00:00:01.000: :Chapter 02
00:00:43.334: :Chapter 03
00:01:24.167: :Chapter 04
00:01:25.168: :Chapter 05
00:02:06.000: :Chapter 06
00:02:07.001: :Chapter 07
00:02:47.834: :Chapter 08
00:02:48.835: :Chapter 09
00:03:29.667: :Chapter 10
00:03:30.668: :Chapter 11
00:04:11.501: :Chapter 12
00:04:12.502: :Chapter 13
00:04:53.334: :Chapter 14
00:04:54.335: :Chapter 15
00:05:35.168: :Chapter 16
00:05:36.169: :Chapter 17
00:06:17.001: :Chapter 18
00:06:18.002: :Chapter 19
00:06:58.834: :Chapter 20
00:06:59.835: :Chapter 21
00:07:40.668: :Chapter 22
00:07:41.669: :Chapter 23
00:08:22.501: :Chapter 24
00:08:23.502: :Chapter 25
00:09:04.335: :Chapter 26
00:09:05.336: :Chapter 27
00:09:46.168: :Chapter 28
00:09:47.169: :Chapter 29
00:10:28.002: :Chapter 30
00:10:29.003: :Chapter 31
00:11:09.835: :Chapter 32
00:11:10.836: :Chapter 33
00:11:51.669: :Chapter 34
00:11:52.670: :Chapter 35
00:12:33.502: :Chapter 36
00:12:34.503: :Chapter 37
00:13:15.335: :Chapter 38
00:13:16.336: :Chapter 39
00:13:57.169: :Chapter 40
00:13:58.170: :Chapter 41
00:14:39.002: :Chapter 42
00:14:40.003: :Chapter 43
00:15:20.836: :Chapter 44
00:15:21.837: :Chapter 45
00:16:02.669: :Chapter 46
00:16:03.670: :Chapter 47
00:16:44.503: :Chapter 48
00:16:45.504: :Chapter 49
00:17:26.336: :Chapter 50
00:17:27.337: :Chapter 51
00:18:08.170: :Chapter 52
00:18:09.171: :Chapter 53
00:18:50.003: :Chapter 54
00:18:51.004: :Chapter 55
00:19:31.836: :Chapter 56
00:19:32.837: :Chapter 57
00:20:13.670: :Chapter 58
00:20:14.671: :Chapter 59
00:20:55.503: :Chapter 60
00:20:56.504: :Chapter 61
00:21:37.337: :Chapter 62
00:21:38.338: :Chapter 63
00:22:19.170: :Chapter 64
00:22:20.171: :Chapter 65
00:23:01.004: :Chapter 66
00:23:02.005: :Chapter 67
00:23:42.837: :Chapter 68
00:23:43.838: :Chapter 69
00:24:24.671: :Chapter 70
00:24:25.672: :Chapter 71
00:25:06.504: :Chapter 72
00:25:07.505: :Chapter 73
00:25:48.337: :Chapter 74
00:25:49.338: :Chapter 75
00:26:30.171: :Chapter 76
00:26:31.172: :Chapter 77
00:27:12.004: :Chapter 78
00:27:13.005: :Chapter 79
00:27:53.838: :Chapter 80
00:27:54.839: :Chapter 81
00:28:35.671: :Chapter 82
00:28:36.672: :Chapter 83
00:29:17.505: :Chapter 84
00:29:18.506: :Chapter 85
00:29:59.338: :Chapter 86
00:30:00.339: :Chapter 87
00:30:41.172: :Chapter 88
00:30:42.173: :Chapter 89
00:31:23.005: :Chapter 90




реклама партнёра


Вернуться к началу
 Профиль  
 
   Похожие торренты   Автор   Торрент   Размер 
В этой теме нет новых непрочитанных сообщений. Элвин и бурундуки: Грандиозное бурундуключение / Alvin and the Chipmunks: The Road Chip [мультфильм, фэнтези, комедия, приключения, семейный, музыка, 2015] HDRip, Dub [iTunes]

salma3

10565 | 1034

1.37 ГБ

В этой теме нет новых непрочитанных сообщений. Элвин и бурундуки: Грандиозное бурундуключение / Alvin and the Chipmunks: The Road Chip [мультфильм, фэнтези, комедия, приключения, семейный, музыка, 2015] BDRemux 1080p, Dub+Sub [iTunes]

salma3

11 | 6

22.55 ГБ

В этой теме нет новых непрочитанных сообщений. Элвин и бурундуки 4 / Alvin and the Chipmunks: The Road Chip [комедия, приключения, семейный, музыка, 2015] HDRip-1080p, Dub [Трэйлер]

salma3

645 | 14

54.55 МБ

В этой теме нет новых непрочитанных сообщений. Элвин и бурундуки 4 / Alvin and the Chipmunks: The Road Chip[Комедия, Приключения, Семейный 2015]CamRip

yurban

9945 | 293

1.37 ГБ

В этой теме нет новых непрочитанных сообщений. Димон и Бурундуки / Alvin and the Chipmunks [комедия, пародия, семейный, 2014] HDRip, Dub

radionestandart

3 | 3

1.38 ГБ

В этой теме нет новых непрочитанных сообщений. Кунг-фу Панда:Трилогия / Kung Fu Panda:Trilogy (Марк Осборн, Джон Стивенсон,Алессандро Карлони, Дженнифер Ю) [2008-2016, Мультфильм, боевик, комедия, приключения, семейный , BDRip 1080p] [DD5.1] [Dub Rus , Ukr , Eng]+[Sub Rus , Ukr , Eng][

Враг Нароода

3 | 7

27.41 ГБ

В этой теме нет новых непрочитанных сообщений. Бабай (мультфильм, приключения, комедия, фэнтези, семейный. 2014) WEB-DLRip

Aleksandr.ru

2459 | 93

1.2 ГБ


Начать новую тему Ответить на тему  [ 1 сообщение ] 




Для Мосгорсуда, Роскомнадзора и рекламодателей:: mosgorsud-torrent[собачка]yandex.ru