Торрент файл
скачать торрент магнет ссылка Добавлен: 18 мар 2012, 08:58
Размер: 2.9 ГБ
Сидеров: 3
Личеров: 3
Статус: (Aleksandr.ru)
Автор

СообщениеДобавлено: 18 мар 2012, 08:58 

Не в сети
Супермодератор
Аватара пользователя
Дата регистрации:
22 май 2010, 12:40
Спасибо: 2027 / 98
Сообщения: 2963
Откуда: Н.Новгород
Цирк! Цирк! Цирк! / Orla Frosnapper (2011) BDRip [720p]




Название: Цирк! Цирк! Цирк!
Оригинальное название: Orla Frosnapper
Год выхода: 2011
Жанр:мультфильм, семейный
Режиссер: Питер Додд / Peter Dodd
В ролях: Николай Ли Каас, Туре Линдхардт, Николай Коперникус, Катрин Фалькенберг, Маргете Койту, Оле Теструп, Дэвид Бэйтсон, Cecilie Stenspil, Ларс Тиесгаард, Лассе Лундерсков...

Сюжет фильма:
В маленький город, в котором живет Виктор и его пес Хрящик, приезжает цирк. Директор цирка предлагает всем желающим выступить со своей программой, и все жители города начинают готовиться. Готовятся и Виктор с Хрящиком. Местный хулиган Фредди, по прозвищу Лягушка, обеспокоен происходящим: раньше в центре внимания города был он и его проказы, а теперь никто не обращает на него никакого внимания! Фредди решает похитить Хрящика и сам выступить на арене. Виктору и его друзьям, Якобу и Клэр, предстоят настоящие приключения!



Выпущено: Дания
Продолжительность: 01:24:35
Перевод: Дубляж (Профессиональный) + Оригинальная звуковая дорожка


Качество: BDRip[720p] (Источник: Blue-Bird | Blu-ray Disc)
Формат: MKV
Видео кодек: H.264
Видео: AVC; 1280x688 pix; ~4015 Kbps; 23.976 fps; x264(L4.1); 0.190 bits/pixel
Аудио (Русский): 48 kHz, AC3 Dolby Digital, 6 channels, ~448 kbps
Аудио (Датский): 48 kHz, AC3 Dolby Digital, 6 channels, ~448 kbps
Навигация по главам: Есть
Format: Matroska
Format version: Version 2
File size: 2.90 GiB
Duration: 1h 24mn
Overall bit rate: 4 912 Kbps
Encoded date: UTC 2012-03-17 19:56:07
Writing application: mkvmerge v5.4.0 ('Piper') built on Mar 10 2012 13:34:39
Writing library: libebml v1.2.3 + libmatroska v1.3.0

Video
ID: 1
Format: AVC
Format/Info: Advanced Video Codec
Format profile: High@L4.1
Format settings, CABAC: Yes
Format settings, ReFrames: 9 frames
Codec ID: V_MPEG4/ISO/AVC
Duration: 1h 24mn
Bit rate: 4 015 Kbps
Width: 1 280 pixels
Height: 688 pixels
Display aspect ratio: 1.860
Frame rate: 23.976 fps
Color space: YUV
Chroma subsampling: 4:2:0
Bit depth: 8 bits
Scan type: Progressive
Bits/(Pixel*Frame): 0.190
Stream size: 2.32 GiB (80%)
Title: Ackles | DHT-Movies
Writing library: x264 core 119 r2106 07efeb4
Encoding settings: cabac=1 / ref=9 / deblock=1:-1:-1 / analyse=0x3:0x133 / me=umh / subme=10 / psy=1 / psy_rd=1.00:0.05 / mixed_ref=1 / me_range=32 / chroma_me=1 / trellis=2 / 8x8dct=1 / cqm=0 / deadzone=21,11 / fast_pskip=0 / chroma_qp_offset=-5 / threads=6 / sliced_threads=0 / nr=0 / decimate=1 / interlaced=0 / bluray_compat=0 / constrained_intra=0 / bframes=8 / b_pyramid=2 / b_adapt=2 / b_bias=0 / direct=3 / weightb=1 / open_gop=0 / weightp=2 / keyint=240 / keyint_min=24 / scenecut=40 / intra_refresh=0 / rc_lookahead=60 / rc=2pass / mbtree=1 / bitrate=4015 / ratetol=1.0 / qcomp=0.60 / qpmin=0 / qpmax=69 / qpstep=4 / cplxblur=20.0 / qblur=0.5 / ip_ratio=1.40 / aq=2:0.90
Language: English

Audio #1
ID: 2
Format: AC-3
Format/Info: Audio Coding 3
Mode extension: CM (complete main)
Codec ID: A_AC3
Duration: 1h 24mn
Bit rate mode: Constant
Bit rate: 448 Kbps
Channel(s): 6 channels
Channel positions: Front: L C R, Side: L R, LFE
Sampling rate: 48.0 KHz
Bit depth: 16 bits
Compression mode: Lossy
Stream size: 271 MiB (9%)
Title: AC3 | RUS | 448
Language: Russian

Audio #2
ID: 3
Format: AC-3
Format/Info: Audio Coding 3
Mode extension: CM (complete main)
Codec ID: A_AC3
Duration: 1h 24mn
Bit rate mode: Constant
Bit rate: 448 Kbps
Channel(s): 6 channels
Channel positions: Front: L C R, Side: L R, LFE
Sampling rate: 48.0 KHz
Bit depth: 16 bits
Compression mode: Lossy
Stream size: 271 MiB (9%)
Title: AC3 | DAN | 448
Language: Danish

Menu
00:00:00.000: :00:00:00.000
00:07:20.857: :00:07:20.857
00:15:30.346: :00:15:30.346
00:21:45.304: :00:21:45.304
00:30:07.889: :00:30:07.889
00:36:11.628: :00:36:11.628
00:42:25.168: :00:42:25.168
00:48:00.586: :00:48:00.586
00:55:15.771: :00:55:15.771
01:02:40.674: :01:02:40.674
01:11:32.538: :01:11:32.538
01:21:45.609: :01:21:45.609

x264 [info]: frame I:1482Avg QP: 9.95size:287847
x264 [info]: frame P:31189 Avg QP:14.52size: 43454
x264 [info]: frame B:89010 Avg QP:21.32size:8597
x264 [info]: consecutive B-frames:4.4%3.8% 15.1% 29.0% 13.6% 29.8%2.4%1.0%0.9%
x264 [info]: mb II16..4: 14.7% 43.5% 41.8%
x264 [info]: mb PI16..4:1.2%7.7%1.7%P16..4: 30.8% 11.6% 12.4%1.6%0.7%skip:32.2%
x264 [info]: mb BI16..4:0.2%0.8%0.2%B16..8: 22.8%6.4%2.6%direct: 2.9%skip:64.2%L0:42.1% L1:42.7% BI:15.2%
x264 [info]: 8x8 transform intra:64.4% inter:50.7%
x264 [info]: direct mvsspatial:96.5% temporal:3.5%
x264 [info]: coded y,uvDC,uvAC intra: 82.5% 91.2% 82.0% inter: 13.3% 18.1% 12.7%
x264 [info]: i16 v,h,dc,p: 27% 20% 17% 35%
x264 [info]: i8 v,h,dc,ddl,ddr,vr,hd,vl,hu: 14% 17%9%7% 10% 10% 11% 10% 12%
x264 [info]: i4 v,h,dc,ddl,ddr,vr,hd,vl,hu: 14% 14%6%8% 13% 12% 12% 10% 11%
x264 [info]: i8c dc,h,v,p: 42% 24% 19% 16%
x264 [info]: Weighted P-Frames: Y:0.3% UV:0.2%
x264 [info]: ref P L0: 60.0%8.7% 12.7%5.6%3.5%3.1%2.4%1.8%1.8%0.5%0.0%
x264 [info]: ref B L0: 79.9%9.1%5.0%2.1%1.6%1.2%0.8%0.3%
x264 [info]: ref B L1: 91.5%8.5%
x264 [info]: kb/s:4015.09

x264 [total]: encoded 121681 frames, 6.10 fps, 4015.10 kb/s






реклама партнёра


Вернуться к началу
 Профиль Отправить личное сообщение  
 
   Похожие торренты   Автор   Торрент   Размер 
В этой теме нет новых непрочитанных сообщений. Алиса-Цирк [Rock,2014]FLAC

Aleksandr.ru

172 | 4

379.48 МБ

В этой теме нет новых непрочитанных сообщений. Алиса-Цирк [Rock,2014]MP3, 320 kbps

Aleksandr.ru

889 | 22

119.22 МБ

В этой теме нет новых непрочитанных сообщений. Невидимый цирк / The Invisible Circus [драма, 2000] DVDRip, Mvo

salma3

24 | 6

1.38 ГБ

В этой теме нет новых непрочитанных сообщений. Смешарики. Начало (Денис Чернов) [2011, мультфильм, комедия, приключения, семейный, BDRip 720p] R5

marya111

0 | 4

3.55 ГБ

В этой теме нет новых непрочитанных сообщений. Рио 2 / Rio 2 [Мультфильм, комедия, приключения, семейный, 2014] BDRip 720p, Dub [iTunes]

Dracon

340 | 14

4.64 ГБ

В этой теме нет новых непрочитанных сообщений. Песочник / Piper (Мультфильм, семейный, короткометражный, 2016) BDRip 720p от Koenig

marya111

0 | 0

171.32 МБ

В этой теме нет новых непрочитанных сообщений. Реальная белка / The Nut Job [мультфильм, комедия, приключения, семейный, 2014] BDRip 720p, Dub [Лицензия]

Dracon

530 | 16

2.91 ГБ


Начать новую тему Ответить на тему  [ 1 сообщение ] 




Для Мосгорсуда, Роскомнадзора и рекламодателей:: mosgorsud-torrent[собачка]yandex.ru