Торрент файл
скачать торрент магнет ссылка Добавлен: 09 мар 2012, 19:25
Размер: 345.45 МБ
Сидеров: 0
Личеров: 3
Статус: (PriZraK)
Автор

СообщениеДобавлено: 09 мар 2012, 19:25 

Не в сети
Администратор
Дата регистрации:
08 апр 2010, 18:00
Спасибо: 1075 / 220
Сообщения: 17131

Информация о фильме
Название: Маша и Медведь: Подкидыш
Год выхода: 2012
Жанр: Мультфильм, короткометражка, комедия, семейный
Режиссер: Олег Кузовков, Денис Червяцов
Роли озвучивали: Алина Кукушкина, Эдуард Назаров, Борис Кутневич

О фильме:
Маша, прогуливаясь по лесу, натыкается на огромное яйцо! Пытливый ум Маши пытается представить - кто же там сидит? С этим вопросом она обращается к Медведю, и он сразу определяет, что там сидит пингвиненок! Маша поручает Медведю высидеть яйцо. После того, как малыш появился на свет, они с Машей и Медведем стали одной большой семьей.



Страна: Россия
Продолжительность: 00:07:13
Студия: "Анимаккорд"
Перевод: оригинал

Файл
Кодек: Advanced Video Coding
Качество: BDRip
Видео: 1920 x 1080 (1.778) at 50.000 fps/AVC at 6034 Кбит/сек
Аудио: AC-3 at 640 Кбит/сек/2 канала, 48,0 КГц
Видео
Идентификатор: 1
Формат: AVC
Формат/Информация: Advanced Video Codec
Профиль формата: High@L4.1
Параметр CABAC формата: Да
Параметр ReFrames формата: 3 кадра
Идентификатор кодека: avc1
Идентификатор кодека/Информация: Advanced Video Coding
Продолжительность: 7 м. 13 с.
Битрейт: 6034 Кбит/сек
Ширина: 1920 пикселей
Высота: 1080 пикселей
Соотношение сторон: 16:9
Режим частоты кадров: Постоянный
Частота кадров: 50,000 кадров/сек
Цветовое пространство: YUV
Субдискретизация насыщенности: 4:2:0
Битовая глубина: 8 бит
Тип развёртки: Прогрессивная
Бит/(Пиксели*Кадры): 0.058
Размер потока: 312 Мбайт (90%)
Библиотека кодирования: x264 core 116 r2019M 9cc407d
Язык: Russian

Аудио
Идентификатор: 2
Формат: AC-3
Формат/Информация: Audio Coding 3
Расширение режима: CM (complete main)
Идентификатор кодека: ac-3
Продолжительность: 7 м. 13 с.
Вид битрейта: Постоянный
Битрейт: 640 Кбит/сек
Каналы: 2 канала
Расположение каналов: Front: L R
Частота: 48,0 КГц
Битовая глубина: 16 бит
Метод сжатия: С потерями
Размер потока: 33,1 Мбайт (10%)
Язык: Russian




реклама партнёра


Вернуться к началу
 Профиль Отправить личное сообщение  
 
   Похожие торренты   Автор   Торрент   Размер 
В этой теме нет новых непрочитанных сообщений. Маша и Медведь - Красота страшная сила [40] (мультфильм, семейный. 2014) WebRip

Aleksandr.ru

907 | 12

95.03 МБ

В этой теме нет новых непрочитанных сообщений. Маша и Медведь. Пещерный медведь [48] [Мультсериал, сказка, детский, семейный. 2014] WEBRip

Dracon

116 | 5

97.91 МБ

В этой теме нет новых непрочитанных сообщений. Маша и медведь: Game Over [59] ( Мультсериал, сказка, детский, семейный, 2016) WEB-DL 1080p от ExKinoRay

marya111

38 | 1

276.84 МБ

В этой теме нет новых непрочитанных сообщений. Маша и Медведь [01-54] + Машины Сказки [01-26] + Машкины страшилки [1-6 серии] [Мультсериал, сказка, детский, семейный, 2009-2015] BDRip 720p

Dracon

1 | 7

16.95 ГБ

В этой теме нет новых непрочитанных сообщений. Маша и медведь [01-48 из 48] + Машины сказки [01-26 из 26] [Мультсериал, комедия, семейный, 2009-2014] DVD5 + 3xDVD9 [Лицензия]

Dracon

199 | 102

26.48 ГБ

В этой теме нет новых непрочитанных сообщений. Маша и медведь: Праздник урожая [50] (Олег Кузовков, Олег Ужинов, Денис Червяцов) [Мультсериал, сказка, детский, семейный, 2015] WEB-DL 1080p

Dracon

1599 | 59

204.72 МБ

В этой теме нет новых непрочитанных сообщений. Маша и Медведь. Неуловимые мстители [51] (Олег Кузовков, Олег Ужинов, Денис Червяцов) [Мультсериал, сказка, детский, семейный, 2015] WEB-DLRip 1080p

Dracon

10 | 0

189.29 МБ


Начать новую тему Ответить на тему  [ 1 сообщение ] 




Для Мосгорсуда, Роскомнадзора и рекламодателей:: mosgorsud-torrent[собачка]yandex.ru