Торрент файл
скачать торрент магнет ссылка Добавлен: 08 мар 2012, 20:45
Размер: 487.33 МБ
Сидеров: 26
Личеров: 14
Статус: (Aleksandr.ru)
Автор

СообщениеДобавлено: 08 мар 2012, 20:45 

Не в сети
Супермодератор
Аватара пользователя
Дата регистрации:
22 май 2010, 12:40
Спасибо: 2027 / 98
Сообщения: 2963
Откуда: Н.Новгород

Информация о фильме
Название: Маша и Медведь: Подкидыш
Год выхода: 2012
Жанр: Мультфильм, короткометражка, комедия, семейный
Режиссер: Олег Кузовков, Денис Червяцов
В ролях: Алина Кукушкина, Эдуард Назаров, Борис Кутневич

О фильме:
Маша, прогуливаясь по лесу, натыкается на огромное яйцо! Пытливый ум Маши пытается представить - кто же там сидит? С этим вопросом она обращается к Медведю, и он сразу определяет, что там сидит пингвиненок! Маша поручает Медведю высидеть яйцо. После того, как малыш появился на свет, они с Машей и Медведем стали одной большой семьёй.



Страна: Россия
Продолжительность: 00:07:13
Перевод: оригинал

Файл
Кодек: x264
Качество: BDRip 1080p
Видео: MPEG-4 AVC, 7725 Кбит/с, 1920x1080, 24.000 кадр/с
Звук: Русский (DTS, 2 ch, 1510 Кбит/с)

Семпл



Complete name: Z:Masha.i.Medved.(23.serija).2012.x264.BDRip.1080p.mkv
Format: Matroska
Format version: Version 2
File size: 487 MiB
Duration: 7mn 13s
Overall bit rate: 9 422 Kbps
Movie name: Маша и Медведь. Подкидыш (2012) - Release for IronClub.tv
Encoded date: UTC 2012-03-08 11:28:47
Writing application: mkvmerge v5.3.0 ('I could have danced') built on Feb9 2012 10:38:07
Writing library: libebml v1.2.3 + libmatroska v1.3.0

Video
ID: 1
Format: AVC
Format/Info: Advanced Video Codec
Format profile: High@L4.1
Format settings, CABAC: Yes
Format settings, ReFrames: 4 frames
Codec ID: V_MPEG4/ISO/AVC
Duration: 7mn 13s
Bit rate: 7 725 Kbps
Width: 1 920 pixels
Height: 1 080 pixels
Display aspect ratio: 16:9
Frame rate: 24.000 fps
Color space: YUV
Chroma subsampling: 4:2:0
Bit depth: 8 bits
Scan type: Progressive
Bits/(Pixel*Frame): 0.155
Stream size: 400 MiB (82%)
Title: Маша и Медведь. Подкидыш (2012) - Release for IronClub.tv
Writing library: x264 core 116 r2074 2641b9e
Encoding settings: cabac=1 / ref=4 / deblock=1:-3:-3 / analyse=0x3:0x113 / me=umh / subme=10 / psy=1 / psy_rd=1.05:0.05 / mixed_ref=1 / me_range=48 / chroma_me=1 / trellis=2 / 8x8dct=1 / cqm=0 / deadzone=21,11 / fast_pskip=0 / chroma_qp_offset=-2 / threads=12 / sliced_threads=0 / nr=0 / decimate=1 / interlaced=0 / bluray_compat=0 / constrained_intra=0 / bframes=7 / b_pyramid=2 / b_adapt=2 / b_bias=0 / direct=3 / weightb=1 / open_gop=0 / weightp=2 / keyint=250 / keyint_min=23 / scenecut=40 / intra_refresh=0 / rc_lookahead=40 / rc=crf / mbtree=1 / crf=17.5 / qcomp=0.60 / qpmin=10 / qpmax=51 / qpstep=4 / vbv_maxrate=50000 / vbv_bufsize=62500 / crf_max=0.0 / nal_hrd=none / ip_ratio=1.40 / aq=1:1.00
Language: Russian
Default: Yes
Forced: Yes

Audio
ID: 2
Format: DTS
Format/Info: Digital Theater Systems
Codec ID: A_DTS
Duration: 7mn 13s
Bit rate mode: Constant
Bit rate: 1 510 Kbps
Channel(s): 2 channels
Channel positions: Front: L R
Sampling rate: 48.0 KHz
Bit depth: 24 bits
Compression mode: Lossy
Stream size: 78.1 MiB (16%)
Title: Russian: DTS, 1510 kb/s (6 ch)
Language: Russian
Default: Yes
Forced: Ye




реклама партнёра


Вернуться к началу
 Профиль Отправить личное сообщение  
 
   Похожие торренты   Автор   Торрент   Размер 
В этой теме нет новых непрочитанных сообщений. Маша и Медведь - Красота страшная сила [40] (мультфильм, семейный. 2014) WebRip

Aleksandr.ru

907 | 12

95.03 МБ

В этой теме нет новых непрочитанных сообщений. Маша и Медведь. Пещерный медведь [48] [Мультсериал, сказка, детский, семейный. 2014] WEBRip

Dracon

117 | 5

97.91 МБ

В этой теме нет новых непрочитанных сообщений. Маша и медведь: Game Over [59] ( Мультсериал, сказка, детский, семейный, 2016) WEB-DL 1080p от ExKinoRay

marya111

120 | 1

276.84 МБ

В этой теме нет новых непрочитанных сообщений. Маша и Медведь [01-54] + Машины Сказки [01-26] + Машкины страшилки [1-6 серии] [Мультсериал, сказка, детский, семейный, 2009-2015] BDRip 720p

Dracon

1 | 7

16.95 ГБ

В этой теме нет новых непрочитанных сообщений. Маша и медведь [01-48 из 48] + Машины сказки [01-26 из 26] [Мультсериал, комедия, семейный, 2009-2014] DVD5 + 3xDVD9 [Лицензия]

Dracon

199 | 102

26.48 ГБ

В этой теме нет новых непрочитанных сообщений. Маша и медведь: Праздник урожая [50] (Олег Кузовков, Олег Ужинов, Денис Червяцов) [Мультсериал, сказка, детский, семейный, 2015] WEB-DL 1080p

Dracon

1600 | 59

204.72 МБ

В этой теме нет новых непрочитанных сообщений. Маша и Медведь. Неуловимые мстители [51] (Олег Кузовков, Олег Ужинов, Денис Червяцов) [Мультсериал, сказка, детский, семейный, 2015] WEB-DLRip 1080p

Dracon

10 | 0

189.29 МБ


Начать новую тему Ответить на тему  [ 1 сообщение ] 




Для Мосгорсуда, Роскомнадзора и рекламодателей:: mosgorsud-torrent[собачка]yandex.ru