Торрент файл
скачать торрент магнет ссылка Добавлен: 19 фев 2012, 12:14
Размер: 4.37 ГБ
Сидеров: 37
Личеров: 6
Статус: (Aleksandr.ru)
Автор

СообщениеДобавлено: 19 фев 2012, 12:14 

Не в сети
Супермодератор
Аватара пользователя
Дата регистрации:
22 май 2010, 12:40
Спасибо: 2157 / 98
Сообщения: 2956
Откуда: Н.Новгород

Информация о фильме
Название: Монстр в Париже
Оригинальное название: Un monstre a Paris
Год выхода: 2011
Жанр: мультфильм, фэнтези, комедия, приключения, музыка
Режиссер: Бибо Бержерон
В ролях: Ванесса Паради, Матье Шедид, Гад Эльмалех, Франсуа Клюзе, Людивин Санье, Жюли Ферье, Бруно Саломон, Себастьян Дежу, Филип Петью, Боб Бэлабан

О фильме: Париж. 1910 год. Ужасный монстр, напоминающий гигантское насекомое, нагоняет страх на всю Францию. Застенчивый киномеханик и неутомимый изобретатель начинают охоту на него. В этой погоне они знакомятся со звездой кабаре, сумасшедшим ученым и его умной обезьянкой и, наконец, самим монстром, который оказывается совсем не страшным. Теперь безобидное, как блоха, чудовище ищет у своих новых друзей защиты от вредного начальника городской полиции.



Выпущено: Europa Corp.
Продолжительность: 01:29:59
Перевод: Дублированный

Файл
Кодек: x264
Качество: BDRip (источник: Blu-ray Disc)
Видео: 1920x1040 (16:9), 23.976 fps, 5611 kbps
Аудио #1: AC-3, 6 ch, 448 kbps (Rus)
Аудио #2: AC-3, 6 ch, 448 kbps (Fre)
Аудио #3: AC-3, 6 ch, 448 kbps (Eng)
Субтитры: Русские
Скачать: сэмпл

Скриншоты

Общее
Уникальный идентификатор: 199847348598398185152727114946226578452 (0x96593305244177B0A148B78573B66414)
Полное имя: Un.monstre.a.Paris.2011.BDRip.1080p.Rus.Fre.Eng.mkv
Формат: Matroska
Версия формата: Version 2
Размер файла: 4,37 Гбайт
Продолжительность: 1 ч. 29 м.
Общий поток: 6957 Кбит/сек
Название фильма: Монстр в Париже / Un monstre a Paris (2011)
Дата кодирования: UTC 2012-02-19 02:41:15
Программа кодирования: mkvmerge v4.0.0 ('The Stars were mine') сборка от Jun6 2010 16:18:42
Библиотека кодирования: libebml v1.0.0 + libmatroska v1.0.0

Видео
Идентификатор: 1
Формат: AVC
Формат/Информация: Advanced Video Codec
Профиль формата: High@L4.1
Параметр CABAC формата: Да
Параметр ReFrames формата: 4 кадра
Идентификатор кодека: V_MPEG4/ISO/AVC
Продолжительность: 1 ч. 29 м.
Битрейт: 5611 Кбит/сек
Ширина: 1920 пикселей
Высота: 1040 пикселей
Соотношение сторон: 16:9
Частота кадров: 23,976 кадра/сек
Цветовое пространство: YUV
Субдискретизация насыщенности: 4:2:0
Битовая глубина: 8 бит
Тип развёртки: Прогрессивная
Бит/(Пиксели*Кадры): 0.117
Размер потока: 3,44 Гбайт (79%)
Заголовок: Release by AlexKa
Библиотека кодирования: x264 core 120 r2164 da19765
Настройки программы: cabac=1 / ref=4 / deblock=1:0:0 / analyse=0x3:0x133 / me=umh / subme=10 / psy=1 / psy_rd=1.00:0.00 / mixed_ref=1 / me_range=32 / chroma_me=1 / trellis=2 / 8x8dct=1 / cqm=0 / deadzone=21,11 / fast_pskip=0 / chroma_qp_offset=-2 / threads=12 / sliced_threads=0 / nr=0 / decimate=0 / interlaced=0 / bluray_compat=0 / constrained_intra=0 / bframes=2 / b_pyramid=2 / b_adapt=2 / b_bias=0 / direct=3 / weightb=1 / open_gop=0 / weightp=2 / keyint=240 / keyint_min=24 / scenecut=40 / intra_refresh=0 / rc_lookahead=60 / rc=2pass / mbtree=1 / bitrate=5611 / ratetol=1.0 / qcomp=0.60 / qpmin=0 / qpmax=69 / qpstep=4 / cplxblur=20.0 / qblur=0.5 / ip_ratio=1.40 / aq=1:1.00
Язык: French

Аудио #1
Идентификатор: 2
Формат: AC-3
Формат/Информация: Audio Coding 3
Расширение режима: CM (complete main)
Идентификатор кодека: A_AC3
Продолжительность: 1 ч. 29 м.
Вид битрейта: Постоянный
Битрейт: 448 Кбит/сек
Каналы: 6 каналов
Расположение каналов: Front: L C R, Side: L R, LFE
Частота: 48,0 КГц
Битовая глубина: 16 бит
Метод сжатия: С потерями
Размер потока: 288 Мбайт (6%)
Заголовок: Rus
Язык: Russian

Аудио #2
Идентификатор: 3
Формат: AC-3
Формат/Информация: Audio Coding 3
Расширение режима: CM (complete main)
Идентификатор кодека: A_AC3
Продолжительность: 1 ч. 29 м.
Вид битрейта: Постоянный
Битрейт: 448 Кбит/сек
Каналы: 6 каналов
Расположение каналов: Front: L C R, Side: L R, LFE
Частота: 48,0 КГц
Битовая глубина: 16 бит
Метод сжатия: С потерями
Размер потока: 288 Мбайт (6%)
Заголовок: Fre
Язык: French

Аудио #3
Идентификатор: 4
Формат: AC-3
Формат/Информация: Audio Coding 3
Расширение режима: CM (complete main)
Идентификатор кодека: A_AC3
Продолжительность: 1 ч. 29 м.
Вид битрейта: Постоянный
Битрейт: 448 Кбит/сек
Каналы: 6 каналов
Расположение каналов: Front: L C R, Side: L R, LFE
Частота: 48,0 КГц
Битовая глубина: 16 бит
Метод сжатия: С потерями
Размер потока: 288 Мбайт (6%)
Заголовок: Eng
Язык: English

Текст
Идентификатор: 5
Формат: UTF-8
Идентификатор кодека: S_TEXT/UTF8
Идентификатор кодека/Информация: UTF-8 Plain Text
Заголовок: Rus
Язык: Russian

Меню
00:00:00.000: :Chapter 01
00:03:14.611: :Chapter 02
00:10:38.262: :Chapter 03
00:15:07.948: :Chapter 04
00:17:48.108: :Chapter 05
00:21:38.630: :Chapter 06
00:28:02.222: :Chapter 07
00:30:39.754: :Chapter 08
00:35:02.183: :Chapter 09
00:42:24.750: :Chapter 10
00:48:00.335: :Chapter 11
00:53:32.042: :Chapter 12
00:57:17.350: :Chapter 13
01:02:58.733: :Chapter 14
01:06:36.117: :Chapter 15
01:11:08.013: :Chapter 16
01:15:37.324: :Chapter 17
01:20:14.559: :Chapter 18
01:29:53.346: :Chapter 19




реклама партнёра


Вернуться к началу
 Профиль Отправить личное сообщение  
 
   Похожие торренты   Автор   Торрент   Размер 
В этой теме нет новых непрочитанных сообщений. Идиот в Париже / Un idiot à Paris [Комедия, 1967] BDRip 1080p, Mvo+Sub

salma3

77 | 7

5.54 ГБ

В этой теме нет новых непрочитанных сообщений. Идиот в Париже / Un idiot a Paris [комедия, 1967] BDRip-AVC, Mvo

salma3

13 | 5

1.81 ГБ

В этой теме нет новых непрочитанных сообщений. Идиот в Париже / Un idiot a Paris [комедия, 1967] BDRip 720p, Mvo+Sub

salma3

52 | 0

2.89 ГБ

В этой теме нет новых непрочитанных сообщений. Пуэрториканцы в Париже / Puerto Ricans in Paris [комедия, 2015] BDRip, Mvo [iTunes]

salma3

747 | 70

1.42 ГБ

В этой теме нет новых непрочитанных сообщений. Streets Of Paris / Exhibition A Paris / Exhibition à Paris / Улицы Парижа (Patrice Cabanel, Wild Video) [1996 г., Feature, Anal, DVDRip] Zabou, Liza Harper, Coralie, Elodie Cherie, Magella

salma3

32 | 11

1.14 ГБ

В этой теме нет новых непрочитанных сообщений. Американский оборотень в Париже / An American werewolf in Paris [Ужасы, комедия, 1997] DVDRip, Mvo

salma3

51 | 13

1.46 ГБ

В этой теме нет новых непрочитанных сообщений. Michelle Wild - Страстное танго в Париже / Private Black Label 21: Lust Tango In Paris (2001) DVDRip

salma3

12 | 3

282.31 МБ


Начать новую тему Ответить на тему  [ 1 сообщение ] 




Для Мосгорсуда, Роскомнадзора и рекламодателей:: mosgorsud-torrent[собачка]yandex.ru