Торрент файл
скачать торрент магнет ссылка Добавлен: 16 фев 2012, 10:27
Размер: 5.33 ГБ
Сидеров: 21
Личеров: 4
Статус: (Dracon)
Автор

СообщениеДобавлено: 16 фев 2012, 10:27 

Не в сети
Зам. Админа
Аватара пользователя
Дата регистрации:
02 дек 2010, 12:39
Спасибо: 12623 / 214
Сообщения: 28012

Год выпуска: 2011
Жанр:Мультфильм, фэнтези, комедия, приключения, музыка
Режиссер: Бибо Бержерон
В ролях: Ванесса Паради, Матье Шедид, Гад Эльмалех, Франсуа Клюзе, Людивин Санье, Жюли Ферье, Бруно Саломон, Себастьян Дежу, Филип Петью, Боб Бэлабан

Описание:
Париж. 1910 год. Ужасный монстр, напоминающий гигантское насекомое, нагоняет страх на всю Францию. Застенчивый киномеханик и неутомимый изобретатель начинают охоту на него. В этой погоне они знакомятся со звездой кабаре, сумасшедшим ученым и его умной обезьянкой и, наконец, самим монстром, который оказывается совсем не страшным. Теперь безобидное, как блоха, чудовище ищет у своих новых друзей защиты от вредного начальника городской полиции.


Официальный сайт

Выпущено: Франция / France 3 Cinema, Bibo Films, Europa Corp.
Озвучивание: Дублированное [Лицензия]
Продолжительность: 01:30:17



Качество: BDRip 720p
Видео: MKV (x.264), 1280x690, 23.976 fps, 5449 kb/s
Аудио #1: Русский, DTS 5.1, 1510 kb/s, 48 KHz
Аудио #2: Французский, DTS 5.1, 1510 kb/s, 48 KHz
Субтитры: Русские

Релиз от:












Главное
Полное имя: Un.Monstre.a.Paris.2011.Blu-ray.720p.x264-HDChina.Rus.Fre.mkv
Формат: Matroska
Версия формата: Version 2
Размер файла: 5,33 Гбайт
Продолжительность: 1 ч. 30 м.
Общий поток: 8446 Кбит/сек
Название фильма: HANSMER
Дата кодирования: UTC 2012-02-15 16:43:50
Программа кодирования: mkvmerge v5.3.0 ('I could have danced') built on Feb9 2012 10:38:07
Библиотека кодирования: libebml v1.2.3 + libmatroska v1.3.0

Видео
Идентификатор: 1
Формат: AVC
Формат/Информация: Advanced Video Codec
Профиль формата: High@L4.1
Параметр CABAC формата: Да
Параметр ReFrames формата: 9 кадров
Идентификатор кодека: V_MPEG4/ISO/AVC
Продолжительность: 1 ч. 30 м.
Битрейт: 5449 Кбит/сек
Ширина: 1280 пикселей
Высота: 690 пикселей
Соотношение сторон: 1,855
Частота кадров: 23,976 кадра/сек
Цветовое пространство: YUV
Субдискретизация насыщенности: 4:2:0
Битовая глубина: 8 бит
Тип развёртки: Прогрессивная
Бит/(Пиксели*Кадры): 0.257
Размер потока: 3,32 Гбайт (62%)
Заголовок: A.Monster.in.Paris.2011.720p.BluRay.x264-HDChina
Библиотека кодирования: x264 core 120 r2146 bcd41db
Настройки программы: cabac=1 / ref=9 / deblock=1:-1:-1 / analyse=0x3:0x133 / me=umh / subme=10 / psy=1 / psy_rd=1.00:0.00 / mixed_ref=1 / me_range=32 / chroma_me=1 / trellis=2 / 8x8dct=1 / cqm=0 / deadzone=21,11 / fast_pskip=1 / chroma_qp_offset=-2 / threads=12 / sliced_threads=0 / nr=0 / decimate=0 / interlaced=0 / bluray_compat=0 / constrained_intra=0 / bframes=6 / b_pyramid=2 / b_adapt=2 / b_bias=0 / direct=3 / weightb=1 / open_gop=0 / weightp=2 / keyint=250 / keyint_min=23 / scenecut=40 / intra_refresh=0 / rc_lookahead=60 / rc=2pass / mbtree=1 / bitrate=5449 / ratetol=1.0 / qcomp=0.60 / qpmin=0 / qpmax=69 / qpstep=4 / cplxblur=20.0 / qblur=0.5 / vbv_maxrate=50000 / vbv_bufsize=50000 / nal_hrd=none / ip_ratio=1.50 / aq=1:1.00
Язык: French

Аудио #1
Идентификатор: 2
Формат: DTS
Формат/Информация: Digital Theater Systems
Идентификатор кодека: A_DTS
Продолжительность: 1 ч. 30 м.
Вид битрейта: Постоянный
Битрейт: 1510 Кбит/сек
Каналы: 6 каналов
Расположение каналов: Front: L C R, Side: L R, LFE
Частота: 48,0 КГц
Битовая глубина: 24 бит
Метод сжатия: С потерями
Размер потока: 975 Мбайт (18%)
Язык: Russian

Аудио #2
Идентификатор: 3
Формат: DTS
Формат/Информация: Digital Theater Systems
Идентификатор кодека: A_DTS
Продолжительность: 1 ч. 30 м.
Вид битрейта: Постоянный
Битрейт: 1510 Кбит/сек
Каналы: 6 каналов
Расположение каналов: Front: L C R, Side: L R, LFE
Частота: 48,0 КГц
Битовая глубина: 24 бит
Метод сжатия: С потерями
Размер потока: 975 Мбайт (18%)
Язык: French

Текст
Идентификатор: 4
Формат: UTF-8
Идентификатор кодека: S_TEXT/UTF8
Идентификатор кодека/Информация: UTF-8 Plain Text
Язык: Russian




реклама партнёра


Вернуться к началу
 Профиль  
 
   Похожие торренты   Автор   Торрент   Размер 
В этой теме нет новых непрочитанных сообщений. Идиот в Париже / Un idiot a Paris [комедия, 1967] BDRip 720p, Mvo+Sub

salma3

52 | 0

2.89 ГБ

В этой теме нет новых непрочитанных сообщений. Идиот в Париже / Un idiot a Paris [комедия, 1967] BDRip-AVC, Mvo

salma3

13 | 5

1.81 ГБ

В этой теме нет новых непрочитанных сообщений. Идиот в Париже / Un idiot à Paris [Комедия, 1967] BDRip 1080p, Mvo+Sub

salma3

77 | 7

5.54 ГБ

В этой теме нет новых непрочитанных сообщений. Пуэрториканцы в Париже / Puerto Ricans in Paris [комедия, 2015] BDRip, Mvo [iTunes]

salma3

747 | 70

1.42 ГБ

В этой теме нет новых непрочитанных сообщений. Streets Of Paris / Exhibition A Paris / Exhibition à Paris / Улицы Парижа (Patrice Cabanel, Wild Video) [1996 г., Feature, Anal, DVDRip] Zabou, Liza Harper, Coralie, Elodie Cherie, Magella

salma3

32 | 11

1.14 ГБ

В этой теме нет новых непрочитанных сообщений. Американский оборотень в Париже / An American werewolf in Paris [Ужасы, комедия, 1997] DVDRip, Mvo

salma3

51 | 13

1.46 ГБ

В этой теме нет новых непрочитанных сообщений. Парижские тайны / Les mystеres de Paris [Боевик, Приключения, Криминал, 1962] BDRip 720p, Dub+3Mvo

salma3

0 | 0

5.15 ГБ


Начать новую тему Ответить на тему  [ 1 сообщение ] 




Для Мосгорсуда, Роскомнадзора и рекламодателей:: mosgorsud-torrent[собачка]yandex.ru