Торрент файл
скачать торрент магнет ссылка Добавлен: 11 фев 2012, 09:44
Размер: 4.13 ГБ
Сидеров: 3
Личеров: 4
Статус: (Aleksandr.ru)
Автор

СообщениеДобавлено: 11 фев 2012, 09:44 

Не в сети
Супермодератор
Аватара пользователя
Дата регистрации:
22 май 2010, 12:40
Спасибо: 2027 / 98
Сообщения: 2963
Откуда: Н.Новгород

Информация о фильме
Название: Кот в сапогах
Оригинальное название: Puss in Boots
Год выхода: 2011
Жанр: Мультфильм, фэнтези, комедия, приключения
Режиссер: Крис Миллер
В ролях: Антонио Бандерас, Сальма Хайек, Зак Галифианакис, Билли Боб Торнтон, Эми Седарис, Констанс Мари, Гильермо дель Торо, Рич Дитль, Райан Крего, Том Вилер

О фильме:
Мечи пересекутся и сердца будут разбиты в приключениях с одним из самых любимых персонажей из Шрэка — котом в сапогах. Это удалая поездка ранних лет кота в сапогах, когда он объединяется с умным Шалтай-Болтаем и сообразительной Китти, чтобы украсть знаменитого Гуся, несущего золотые яйца.


Официальный сайт

Страна: США
Студия: DreamWorks Animation
Продолжительность: 01:30:14
Перевод: Дублированный (центральный канал с TS)

Файл
Кодек: x264
Качество: BDRip 720p
Видео: 1280x544, 4600 Кбит/с, 23.976 кадр/с
Аудио #1: Русский (AC3, 6 ch, 448 Кбит/с)
Аудио #2: Английский (DTS, 6 ch, 1510 Кбит/с)
Субтитры: Английские (srt)

Семпл


Общее
Уникальный идентификатор: 209246710766252460372714508079177815686 (0x9D6B735AB69EEBC9BF1FCD6D695A5686)
Полное имя: Z:Kot.v.sapogah.2011.x264.BDRip(720p).mkv
Формат: Matroska
Размер файла: 4,13 Гбайт
Продолжительность: 1 ч. 30 м.
Общий поток: 6559 Кбит/сек
Дата кодирования: UTC 2012-02-10 19:34:20
Программа кодирования: mkvmerge v5.3.0 ('I could have danced') built on Feb9 2012 10:38:07
Библиотека кодирования: libebml v1.2.3 + libmatroska v1.3.0

Видео
Идентификатор: 1
Формат: AVC
Формат/Информация: Advanced Video Codec
Профиль формата: High@L4.1
Параметр CABAC формата: Да
Параметр ReFrames формата: 12 кадры
Идентификатор кодека: V_MPEG4/ISO/AVC
Продолжительность: 1 ч. 30 м.
Битрейт: 4600 Кбит/сек
Ширина: 1280 пикс.
Высота: 544 пикс.
Соотношение сторон: 2,35:1
Частота кадров: 23,976 кадр/сек
Цветовое пространство: YUV
Подвыборка цветности: 4:2:0
Битовая глубина: 8 бит
Тип развёртки: Прогрессивная
Бит/(Пиксели*Кадры): 0.276
Размер потока: 2,82 Гбайт (68%)
Библиотека кодирования: x264 core 120 r2164 da19765
Настройки программы: cabac=1 / ref=12 / deblock=1:-2:-2 / analyse=0x3:0x133 / me=umh / subme=10 / psy=1 / psy_rd=1.00:0.00 / mixed_ref=1 / me_range=48 / chroma_me=1 / trellis=2 / 8x8dct=1 / cqm=0 / deadzone=21,11 / fast_pskip=0 / chroma_qp_offset=-2 / threads=12 / sliced_threads=0 / nr=0 / decimate=0 / interlaced=0 / bluray_compat=0 / constrained_intra=0 / bframes=7 / b_pyramid=2 / b_adapt=2 / b_bias=0 / direct=3 / weightb=1 / open_gop=0 / weightp=2 / keyint=240 / keyint_min=24 / scenecut=40 / intra_refresh=0 / rc=2pass / mbtree=0 / bitrate=4600 / ratetol=1.0 / qcomp=0.70 / qpmin=0 / qpmax=69 / qpstep=4 / cplxblur=20.0 / qblur=0.5 / ip_ratio=1.50 / pb_ratio=1.20 / aq=1:1.20
Язык: English

Аудио #1
Идентификатор: 2
Формат: AC-3
Формат/Информация: Audio Coding 3
Расширение режима: CM (complete main)
Идентификатор кодека: A_AC3
Продолжительность: 1 ч. 30 м.
Вид битрейта: Постоянный
Битрейт: 448 Кбит/сек
Канал(ы): 6 канала(ов)
Расположение каналов: Front: L C R, Side: L R, LFE
Частота: 48,0 КГц
Битовая глубина: 16 бит
Метод сжатия: С потерями
Размер потока: 289 Мбайт (7%)
Язык: Russian

Аудио #2
Идентификатор: 3
Формат: DTS
Формат/Информация: Digital Theater Systems
Идентификатор кодека: A_DTS
Продолжительность: 1 ч. 30 м.
Вид битрейта: Постоянный
Битрейт: 1510 Кбит/сек
Канал(ы): 6 канала(ов)
Расположение каналов: Front: L C R, Side: L R, LFE
Частота: 48,0 КГц
Битовая глубина: 24 бит
Метод сжатия: С потерями
Размер потока: 974 Мбайт (23%)
Язык: English

Текст
Идентификатор: 4
Формат: UTF-8
Идентификатор кодека: S_TEXT/UTF8
Идентификатор кодека/Информация: UTF-8 Plain Text
Язык: English
















реклама партнёра


Вернуться к началу
 Профиль Отправить личное сообщение  
 
   Похожие торренты   Автор   Торрент   Размер 
В этой теме нет новых непрочитанных сообщений. Приключения кота в сапогах / The Adventures of Puss in Boots [S02] [Мультсериал, комедия, приключения, семейный, 2016] WEBRip 720p, Mvo [NewStudio]

salma3

207 | 32

3.96 ГБ

В этой теме нет новых непрочитанных сообщений. Приключения кота в сапогах / The Adventures of Puss in Boots [01x01-03 из XX] (Даг Лэнгдэйл) [2015, Мультсериал, комедия, приключения, семейный, WEBRip 720p | NewStudio]

Nickolas3435

136 | 9

1.63 ГБ

В этой теме нет новых непрочитанных сообщений. Приключения кота в сапогах / The Adventures of Puss in Boots [01x01-15 из 15] (Даг Лэнгдэйл) [Мультсериал, комедия, приключения, семейный, 2015] WEBRip 720p [NewStudio]

Dracon

245 | 149

6.43 ГБ

В этой теме нет новых непрочитанных сообщений. Приключения Кота в сапогах / The Adventures of Puss in Boots [Season 1, Episode 1-5] (Даг Лэнгдэйл) [мультсериал, 2015] WebRip, Mvo

Dracon

182 | 13

1.47 ГБ

В этой теме нет новых непрочитанных сообщений. Приключения кота в сапогах / The Adventures of Puss in Boots [S03] [Мультсериал, комедия, приключения, семейный, 2016] WEBRip, Mvo [NewStudio]

salma3

105 | 32

3.02 ГБ

В этой теме нет новых непрочитанных сообщений. Приключения кота в сапогах / The Adventures of Puss in Boots [01x01-15 из 15] (Даг Лэнгдэйл) [Мультсериал, комедия, приключения, семейный, 2015] WEBRip [NewStudio]

Dracon

914 | 329

4.32 ГБ

В этой теме нет новых непрочитанных сообщений. Приключения кота в сапогах / The Adventures of Puss in Boots [2 сезон: 1-11 серия из 11] [Мультсериал, комедия, приключения, семейный, 2016] WEBRip [NewStudio]

Dracon

172 | 46

3.22 ГБ


Начать новую тему Ответить на тему  [ 1 сообщение ] 




Для Мосгорсуда, Роскомнадзора и рекламодателей:: mosgorsud-torrent[собачка]yandex.ru